<?xml version="1.0" standalone="no"?>
<!DOCTYPE svg PUBLIC "-//W3C//DTD SVG 1.1//EN" "http://www.w3.org/Graphics/SVG/1.1/DTD/svg11.dtd" >
<svg xmlns="http://www.w3.org/2000/svg" xmlns:xlink="http://www.w3.org/1999/xlink" version="1.1">
<metadata></metadata>
<defs>
<font id="roboto_monomedium_italic" horiz-adv-x="1202" >
<font-face units-per-em="2048" ascent="1536" descent="-512" />
<missing-glyph horiz-adv-x="500" />
<glyph horiz-adv-x="0" />
<glyph horiz-adv-x="0" />
<glyph />
<glyph unicode="&#x9;" />
<glyph unicode=" " />
<glyph unicode="!" d="M677 493h-221l160 963h236zM366 115q0 30 10.5 55.5t28.5 44t43.5 29t55.5 11.5q29 1 54 -8.5t43.5 -27t29 -42t10.5 -54.5t-10.5 -55t-29.5 -43t-44 -28.5t-55 -10.5q-29 -1 -54 8t-43 26t-28.5 41t-10.5 54z" />
<glyph unicode="&#x22;" d="M609 1419l-85 -389h-155l80 506h178zM988 1419l-84 -389h-156l80 506h179z" />
<glyph unicode="#" d="M619 410h-214l-145 -410h-167l146 410h-223l28 157h250l112 314h-236l28 159h264l149 416h166l-149 -416h214l149 416h168l-148 -416h198l-28 -159h-227l-112 -314h212l-28 -157h-239l-146 -410h-167zM461 567h214l111 314h-214z" />
<glyph unicode="$" d="M818 387q6 49 -8.5 86.5t-42 65.5t-65.5 48.5t-79 37.5q-76 31 -143.5 69.5t-117 91t-75.5 121t-20 159.5q6 90 41.5 161.5t92.5 122.5t132 82t161 41l39 218h156l-40 -222q87 -17 146 -61.5t93.5 -106.5t47.5 -138.5t8 -157.5h-233q3 46 -2.5 94t-24.5 87.5t-54 64.5 t-92 27q-49 1 -90.5 -13.5t-72.5 -42t-50.5 -67t-24.5 -87.5q-6 -51 8.5 -88t43 -64.5t67 -48t80.5 -37.5q76 -32 142.5 -70.5t115 -91t74 -121t19.5 -158.5q-6 -94 -43 -165.5t-96.5 -122t-137.5 -79.5t-166 -38l-35 -194h-156l36 195q-92 14 -158 53.5t-108 99.5 t-60.5 137.5t-13.5 166.5h233q-3 -54 6 -101.5t33 -84t64.5 -58t100.5 -22.5q50 -1 96 12t82.5 40t60.5 66.5t30 92.5z" />
<glyph unicode="%" d="M136 1195q7 61 31.5 113.5t64 90.5t92.5 59t117 20q61 -2 107.5 -24t77 -60t44 -89t9.5 -109l-7 -77q-7 -61 -31.5 -112.5t-63.5 -89t-91.5 -58.5t-115.5 -20q-61 1 -107.5 23.5t-77.5 60t-45.5 88t-10.5 108.5zM298 1116q-1 -23 2 -47t12.5 -43.5t27.5 -32t47 -12.5 t50.5 12t36 31t22.5 43.5t11 50.5l7 79q1 24 -1.5 48t-12.5 44t-28 32.5t-47 12.5t-50.5 -12t-36 -31t-23 -44t-11.5 -50zM561 336q7 61 31.5 113t64.5 90t93 59t116 20q61 -2 107.5 -24t77 -60t44.5 -88.5t10 -108.5l-8 -78q-7 -61 -31 -112.5t-63 -89t-92 -58.5t-116 -20 q-61 1 -107.5 23t-77.5 59.5t-45 88t-10 109.5zM722 257q-2 -23 1.5 -47.5t13 -44t27.5 -32t47 -12.5q30 0 51.5 11.5t36 30.5t22 44t10.5 51l7 80q1 24 -1.5 48t-12 43.5t-27 32t-46.5 12.5t-50.5 -11.5t-36.5 -31t-24 -44t-12 -49.5zM334 197l-120 67l720 1023l119 -67z " />
<glyph unicode="&#x26;" d="M50 366q5 73 33.5 133.5t72.5 110t99.5 91t114.5 77.5q-18 39 -33.5 78.5t-27 80t-16.5 82t-2 85.5q7 84 39.5 153.5t86 119t125 76t157.5 24.5q65 -2 119 -27.5t91.5 -68.5t57 -100t15.5 -121q-4 -57 -26 -104t-55.5 -86.5t-75.5 -73.5t-85 -65l-105 -78l202 -345 q46 66 74 135.5t39 148.5l202 1q-12 -132 -63 -246.5t-145 -208.5l136 -238h-258l-50 90q-80 -52 -165.5 -82t-182.5 -28q-84 1 -155 29t-122 78.5t-77 121t-20 157.5zM443 171q63 -2 121 20t112 53l-212 380l-18 -14q-28 -22 -54.5 -48t-48 -56t-36.5 -63.5t-20 -69.5 q-5 -41 2.5 -77t27 -63.5t51 -44t75.5 -17.5zM504 1105q-6 -53 8.5 -102.5t35.5 -97.5l112 80q44 32 74.5 71.5t35.5 95.5q2 23 -2 46.5t-14.5 42.5t-28 31t-44.5 13q-38 1 -68.5 -14t-53 -40.5t-37 -58.5t-18.5 -67z" />
<glyph unicode="'" d="M771 1402l-83 -380h-164l81 514h187z" />
<glyph unicode="(" d="M336 588q14 98 40 201t65 204.5t91 197.5t118 179.5t147 151t177 111.5l34 -143q-106 -80 -183.5 -182.5t-131.5 -219t-88 -242.5t-53 -253l-3 -20q-10 -69 -16.5 -148.5t-6.5 -162.5t9 -166.5t31.5 -160.5t60.5 -145t96 -120l-58 -133q-82 51 -141 124t-100 159.5 t-64 182.5t-33 193.5t-7.5 193t14.5 181.5z" />
<glyph unicode=")" d="M839 580q-14 -98 -40.5 -201t-66 -204.5t-92.5 -197.5t-120 -179.5t-148.5 -151t-177.5 -110.5l-34 136q106 81 183.5 184t132 220.5t88.5 244t53 254.5l3 20q9 67 16 146t7 162.5t-9.5 168t-31.5 162t-60 145.5t-95 119l55 134q82 -51 142 -123t101.5 -158.5t66 -183 t35 -194.5t8 -194t-13.5 -182z" />
<glyph unicode="*" d="M525 649l-356 95l88 189l338 -162l36 432h200l-100 -427l374 153l29 -205l-394 -90l205 -329l-174 -117l-146 370l-256 -355l-154 123z" />
<glyph unicode="+" d="M739 800h371l-40 -225h-370l-75 -429h-227l75 429h-372l39 225h371l71 406h228z" />
<glyph unicode="," d="M565 34q-20 -121 -84.5 -226.5t-159.5 -183.5l-133 74q53 76 89 156t53 171l36 209h233z" />
<glyph unicode="-" d="M1009 542h-778l34 193h778z" />
<glyph unicode="." d="M362 137q0 37 13 69t36 55.5t54.5 37t69.5 13.5q36 0 66.5 -11.5t52 -33.5t34 -52t12.5 -66q0 -38 -13.5 -69t-36.5 -53.5t-55 -35t-69 -12.5q-35 0 -65 11t-52 31.5t-34.5 50t-12.5 65.5z" />
<glyph unicode="/" d="M317 -125h-222l834 1581h221z" />
<glyph unicode="0" d="M1053 555q-17 -113 -56.5 -218t-105.5 -185.5t-161 -128t-222 -44.5q-121 3 -199.5 54t-122 132t-55 183t1.5 206l54 348q17 112 56.5 217t106 185.5t161 128t221.5 44.5q121 -3 200 -54t122.5 -132t54.5 -182.5t-2 -206.5zM380 654l506 341q4 50 0.5 101t-21.5 92 t-54 68t-97 29q-73 3 -123.5 -27t-83.5 -79t-51.5 -110.5t-27.5 -122.5zM858 795l-506 -341q-3 -50 1 -99.5t23 -90t54.5 -66.5t95.5 -28q73 -3 123.5 27.5t84 80t51.5 111.5t27 123z" />
<glyph unicode="1" d="M675 0h-235l200 1156l-385 -135l39 218l608 217h19z" />
<glyph unicode="2" d="M957 0h-950l28 173l532 510q38 37 81 79t81.5 89t66 99t34.5 108q6 44 -2.5 84t-30.5 70.5t-57 49t-82 19.5q-64 2 -113 -17t-84.5 -55t-56.5 -86t-29 -109l-231 -1q9 104 54.5 190.5t117.5 147.5t165 94t197 31q90 -2 164.5 -31.5t127 -82.5t78.5 -128t18 -167 q-7 -81 -42.5 -153.5t-86.5 -137t-111 -122t-116 -109.5l-376 -354h654z" />
<glyph unicode="3" d="M433 836l128 -2q56 1 105.5 16t88.5 44.5t64 73.5t32 102q6 47 -2.5 86t-30.5 67.5t-57.5 44.5t-84.5 17t-91.5 -13.5t-75 -42t-54.5 -66t-31 -86.5l-232 -1q9 95 53 170t112.5 126.5t154 78.5t177.5 25q91 -2 167.5 -29.5t130.5 -79.5t81 -127t19 -170 q-5 -59 -28.5 -108.5t-59 -90.5t-81.5 -73t-96 -56q49 -23 83 -57t54.5 -76.5t28 -91.5t3.5 -101q-9 -105 -54.5 -187t-117.5 -138t-164 -84.5t-192 -26.5q-92 2 -169 31t-132 81.5t-84 127.5t-25 170l233 -1q-5 -96 46 -155.5t150 -62.5q57 -2 105 15t84.5 49.5t60 78 t29.5 101.5q13 112 -44 170.5t-166 61.5l-152 1z" />
<glyph unicode="4" d="M901 517h178l-34 -193h-177l-57 -324h-233l57 324h-613l21 156l774 976h247zM296 517h372l115 623l-34 -50z" />
<glyph unicode="5" d="M209 725l204 731h758l-38 -214h-561l-105 -346q51 29 107 44t115 14q103 -1 175 -42t115 -108.5t59 -154t7 -178.5q-11 -107 -53 -198t-111 -157t-161.5 -102.5t-202.5 -33.5q-92 2 -167 32.5t-128.5 84.5t-83.5 129.5t-31 166.5h224q2 -47 15.5 -87t38 -70t62 -47.5 t87.5 -18.5q66 -2 115 24.5t83 70t53.5 100t25.5 114.5q6 53 -1.5 103t-31 89t-63.5 63t-100 26q-65 2 -116 -20.5t-99 -63.5z" />
<glyph unicode="6" d="M971 1463l-21 -205l-13 1q-110 1 -198 -30t-156 -88t-118 -137.5t-83 -179.5q61 63 137.5 101.5t166.5 37.5q99 -2 168 -44.5t110.5 -110t57.5 -152.5t8 -172q-10 -105 -51 -197.5t-108.5 -161.5t-159 -108.5t-200.5 -36.5q-116 3 -197 54t-129.5 132t-66.5 181.5 t-6 202.5l12 93q23 169 85 318t163.5 260.5t243 176t324.5 65.5h31zM618 771q-44 1 -83 -12t-72.5 -36.5t-61 -55.5t-48.5 -68l-9 -70q-3 -33 -3.5 -71.5t4.5 -78t17 -76t33 -65.5t52.5 -47t75.5 -19q63 -2 111.5 24.5t83 70.5t54.5 99t25 111q5 48 -1 99t-26 93.5t-57 71 t-95 30.5z" />
<glyph unicode="7" d="M1175 1313l-766 -1313h-255l762 1257h-728l32 199h978z" />
<glyph unicode="8" d="M1113 1080q-5 -60 -26 -110t-54.5 -91.5t-78.5 -75t-96 -58.5q89 -57 132 -146.5t35 -194.5q-8 -102 -52.5 -182t-114.5 -134.5t-160 -82t-187 -25.5q-90 2 -168 30t-133.5 80.5t-84.5 127t-21 169.5q5 67 29 123t62 102t88.5 81.5t109.5 61.5q-75 54 -110.5 135 t-28.5 173q7 97 47 174.5t104.5 131.5t148.5 82t179 26q87 -2 160 -30.5t124.5 -80t77 -124t18.5 -162.5zM795 417q5 47 -4.5 89.5t-33 74.5t-61 51.5t-87.5 20.5q-56 1 -103 -18.5t-82 -54t-56.5 -81t-27.5 -99.5q-5 -49 4.5 -90.5t33 -72t61 -48.5t88.5 -19 q55 -1 101.5 17.5t81.5 51.5t57 79t28 99zM878 1072q4 41 -4 79t-28 67.5t-52.5 47t-77.5 18.5q-50 1 -90.5 -17t-70.5 -49t-48 -73t-23 -89q-4 -42 3.5 -80t27.5 -67.5t52.5 -47t77.5 -18.5q49 -1 90 17t71 49.5t48.5 73.5t23.5 89z" />
<glyph unicode="9" d="M269 197q108 -1 194.5 24.5t153 76.5t114.5 126.5t80 175.5q-59 -60 -131 -90.5t-157 -28.5q-99 1 -169 43.5t-112 110t-58 153t-8 173.5q10 104 50.5 198.5t108 166t158.5 112.5t201 38q80 -2 142 -27.5t107.5 -68.5t75.5 -100.5t46 -122.5t19.5 -135t-4.5 -138l-10 -78 q-24 -173 -84 -321t-160 -257t-241.5 -171.5t-327.5 -63.5h-24l22 204h14zM584 668q43 -1 81.5 12.5t71.5 37.5t59.5 56t46.5 68l10 81q3 32 4 70.5t-4 78t-16.5 77t-32 67t-51.5 47.5t-74 20q-63 2 -111.5 -27t-82 -75t-52.5 -102.5t-25 -110.5q-3 -31 -2 -65.5t7.5 -67.5 t19.5 -63t33.5 -52.5t49.5 -36.5t68 -15z" />
<glyph unicode=":" d="M392 137q0 37 13 69t36 55.5t54.5 37t69.5 13.5q36 0 66.5 -11.5t52 -33.5t34 -52t12.5 -66q0 -38 -13.5 -69t-36.5 -53.5t-55 -35t-69 -12.5q-35 0 -65 11t-52 31.5t-34.5 50t-12.5 65.5zM539 988q0 37 13 69t36 55.5t54.5 37t69.5 13.5q36 0 66.5 -11.5t52 -33.5 t34 -52t12.5 -66q0 -38 -13.5 -69t-36.5 -53.5t-55 -35t-69 -12.5q-35 0 -65 11t-52 31.5t-34.5 50t-12.5 65.5z" />
<glyph unicode=";" d="M554 988q0 37 13 69t36 55.5t54.5 37t69.5 13.5q36 0 66.5 -11.5t52 -33.5t34 -52t12.5 -66q0 -38 -13.5 -69t-36.5 -53.5t-55 -35t-69 -12.5q-35 0 -65 11t-52 31.5t-34.5 50t-12.5 65.5zM665 34q-20 -121 -84.5 -226.5t-159.5 -183.5l-133 74q53 76 89 156t53 171 l36 209h233z" />
<glyph unicode="&#x3c;" d="M468 656l-77 -26l48 -19l526 -208l-40 -231l-777 373l33 190l906 372l-36 -244z" />
<glyph unicode="=" d="M1078 746h-893l35 199h894zM1005 322h-894l35 199h894z" />
<glyph unicode="&#x3e;" d="M210 871l40 227l803 -372l-33 -191l-933 -373l44 246l607 209l77 23l-48 18z" />
<glyph unicode="?" d="M469 424q4 61 14.5 109t30 88.5t51.5 77t80 75.5q37 30 77.5 64.5t76 74t61 84t32.5 94.5q13 90 -32.5 138t-133.5 50q-45 1 -84.5 -11t-70 -35.5t-51 -58t-29.5 -78.5l-233 -1q10 95 52.5 167.5t108 120.5t148.5 72t175 22q87 -2 162 -26t128 -71t80.5 -117t19.5 -163 q-6 -78 -38.5 -140.5t-79.5 -116t-103.5 -100t-111.5 -91.5q-29 -24 -49.5 -48.5t-34 -52t-21.5 -58.5t-13 -67zM374 115q0 30 10.5 56t28.5 44.5t43.5 29.5t55.5 12t55 -8.5t43.5 -27t29 -42.5t10.5 -55t-11 -55t-30 -43t-44 -28.5t-55 -10.5q-29 -1 -54 8t-43 26t-28.5 41 t-10.5 53z" />
<glyph unicode="@" d="M1167 814q-7 -45 -18.5 -100.5t-30 -111.5t-45 -108.5t-63 -93t-83 -64.5t-105.5 -23q-54 2 -91 29t-52 78q-18 -21 -38.5 -40t-43 -33.5t-48.5 -23t-55 -8.5q-44 0 -74 18.5t-48.5 48t-27 68t-10.5 78t1 78t8 68.5q8 52 24 107.5t39.5 108.5t56 100.5t74.5 83t93.5 55.5 t113.5 19q57 -2 104 -22t85 -63l-119 -516q-2 -15 -4.5 -32.5t0 -32.5t11.5 -25.5t30 -11.5q35 -2 61.5 18.5t46.5 53.5t33 74.5t22 82.5t14 77t8 59q7 55 9 112.5t-5 112t-25 103.5t-50.5 85.5t-81.5 59t-118 24.5q-83 2 -152.5 -24t-126.5 -73t-102 -110t-78.5 -133.5 t-56 -144.5t-33.5 -143q-10 -59 -14 -122t2.5 -123t24.5 -113.5t53 -93.5t88 -64t129 -25q63 -1 122.5 15t115.5 43l22 -131q-57 -39 -125.5 -56.5t-137.5 -15.5q-98 1 -171.5 29.5t-125 77.5t-83.5 115t-46.5 142t-14 158.5t13.5 164.5q13 87 43 178.5t74.5 177.5 t104.5 162.5t133.5 133.5t161 88.5t187.5 29.5q86 -2 152 -29.5t113 -74.5t77 -108.5t45 -131.5t16 -145t-9 -147zM495 674q-3 -17 -7.5 -51t-3 -69t13 -62t41.5 -29q21 -1 39.5 5.5t34.5 17.5t30 25t27 29l1 8l117 455q-9 2 -17.5 4t-17.5 2q-64 2 -109 -31t-75.5 -84 t-48 -110.5t-25.5 -109.5z" />
<glyph unicode="A" d="M787 338h-440l-156 -338h-249l712 1456h206l197 -1456h-234zM442 543h322l-60 568z" />
<glyph unicode="B" d="M39 0l253 1456l438 -1q88 -2 170 -25.5t143 -70t94.5 -118.5t25.5 -171q-5 -60 -27.5 -109t-58 -87.5t-82 -68.5t-98.5 -52q51 -19 88 -52t60 -75.5t32.5 -92t6.5 -101.5q-8 -109 -56.5 -190.5t-124 -135.5t-170.5 -80.5t-196 -25.5h-498zM389 660l-81 -464l242 -2 q55 1 106 17t91.5 46t68 74t35.5 101q6 49 -3.5 90t-33.5 70.5t-62 47t-87 19.5zM420 843l212 -2q51 1 100.5 14.5t89.5 40.5t67.5 67.5t35.5 95.5q7 51 -6 87.5t-41 60.5t-67.5 36t-85.5 14l-232 1z" />
<glyph unicode="C" d="M1062 449q-18 -105 -65.5 -192.5t-119.5 -150t-165 -96.5t-201 -31q-88 2 -156 30t-117.5 75t-82 109.5t-49 134t-19 148.5t7.5 152l30 199q13 80 38 160t63 153t88.5 135.5t114.5 108t141.5 70.5t168.5 23q108 -2 187.5 -39.5t132.5 -102t80.5 -151t30.5 -187.5h-233 q-1 55 -11 106t-34 90t-65.5 63.5t-104.5 26.5q-61 2 -108.5 -17.5t-85 -53.5t-65 -80t-47.5 -97t-32.5 -104t-20.5 -102l-31 -202q-6 -42 -9.5 -91t-1 -99t13.5 -96.5t34.5 -83.5t61.5 -60t96 -25q65 -2 116 18.5t88.5 58t62.5 88t39 109.5z" />
<glyph unicode="D" d="M28 0l253 1456l333 -1q144 -3 250 -58t172 -147t91.5 -212.5t8.5 -255.5l-15 -110q-22 -142 -82.5 -265t-154 -213.5t-217.5 -142t-273 -51.5h-366zM485 1262l-185 -1069l103 -1q106 0 188.5 38.5t142 104t96.5 152.5t52 185l17 113q11 84 4 167.5t-40 150.5t-95.5 110.5 t-162.5 47.5z" />
<glyph unicode="E" d="M982 653h-581l-79 -457h680l-34 -196h-915l252 1456h909l-35 -198h-673l-72 -411h582z" />
<glyph unicode="F" d="M994 620h-592l-107 -620h-237l253 1456h916l-35 -198h-679l-77 -441h593z" />
<glyph unicode="G" d="M1028 182q-47 -53 -105 -91.5t-123 -63.5t-135 -36.5t-139 -9.5q-88 2 -157 30t-120 75.5t-85 111t-52 135.5t-21.5 150t6.5 154l28 180q13 80 37.5 160.5t62.5 154t88.5 137t114.5 110t141.5 72.5t169.5 25q103 -2 182 -35.5t132.5 -93t82.5 -142t32 -181.5h-229 q-3 52 -15 98t-37 80.5t-64.5 55t-97.5 22.5q-59 2 -107 -18.5t-86 -55.5t-66.5 -82t-49.5 -99t-34.5 -105t-20.5 -101l-29 -183q-6 -43 -8 -93t2.5 -100t17.5 -97t39 -83.5t65.5 -59.5t97.5 -26q69 -3 135 15t117 66l55 292h-255l33 187h484z" />
<glyph unicode="H" d="M956 0h-228l113 650h-479l-113 -650h-228l253 1456h228l-106 -609h478l106 609h229z" />
<glyph unicode="I" d="M324 1456h841l-35 -199h-305l-184 -1059h306l-35 -198h-841l35 198h298l184 1059h-299z" />
<glyph unicode="J" d="M955 1456h237l-171 -1011q-15 -102 -63 -188t-120 -148t-164 -96.5t-195 -32.5q-101 2 -178 35t-129.5 92t-79 140t-25.5 179l236 -1q-2 -51 7.5 -95.5t32.5 -78t61 -54t94 -21.5q58 -2 106.5 20t85 59.5t60 87t32.5 102.5z" />
<glyph unicode="K" d="M542 630l-189 -181l-78 -449h-237l253 1456h237l-117 -670l166 180l442 490h301l-601 -649l359 -807h-267z" />
<glyph unicode="L" d="M330 196h674l-34 -196h-908l253 1456h234z" />
<glyph unicode="M" d="M566 1456l65 -626l303 626h294l-253 -1456h-220l88 510l120 609l-331 -679h-123l-81 683l-96 -633l-85 -490h-221l253 1456h287z" />
<glyph unicode="N" d="M955 0h-230l-289 1011l-176 -1011h-238l253 1456h232l286 -1008l178 1008h237z" />
<glyph unicode="O" d="M1110 635q-13 -79 -37.5 -159t-61.5 -153.5t-87 -137t-114 -110t-141 -72t-168 -23.5q-87 2 -153.5 31t-115 77.5t-79.5 112t-47 135.5t-18 148.5t8 149.5l29 186q12 78 36.5 158t61 153.5t85.5 137.5t112 110.5t139 72.5t167 24q87 -2 154.5 -31t117 -77t81.5 -112 t48.5 -136.5t19 -149t-7.5 -150.5zM904 823q5 40 8.5 88.5t0 98t-15 96t-35 83t-61 59.5t-93.5 25q-59 2 -105.5 -17.5t-82.5 -54t-62.5 -80.5t-45.5 -97t-31.5 -103t-20.5 -99l-29 -189q-6 -39 -9.5 -87.5t-1 -98t13.5 -96.5t33.5 -84t59.5 -60.5t93 -25.5 q59 -2 106.5 17.5t84 54t64 81t47.5 97.5t32.5 103.5t20.5 99.5z" />
<glyph unicode="P" d="M389 558l-97 -558h-235l253 1456l460 -1q97 -3 178 -35t138 -90t86 -138.5t20 -180.5q-9 -110 -57.5 -194t-124 -142t-171.5 -88t-199 -30zM422 752l229 -2q58 0 110.5 18.5t93.5 52t67.5 81t33.5 107.5q6 51 -3.5 96t-34 78.5t-64 54t-93.5 23.5l-250 1z" />
<glyph unicode="Q" d="M1118 623q-12 -76 -35 -148.5t-58 -139t-83 -125t-109 -106.5l203 -219l-169 -136l-230 248q-34 -7 -67.5 -11.5t-68.5 -3.5q-85 1 -151 29t-114.5 75t-81 109.5t-50 133.5t-20.5 146t7 147l29 186q13 80 37.5 161t61.5 156t86.5 140t113 112.5t141 74t170.5 24.5 q89 -2 157.5 -31.5t118 -79t81.5 -114.5t49 -138.5t19 -151.5t-8 -153zM911 812q6 42 9.5 91.5t0.5 100t-14.5 98t-35.5 85t-63 61t-97 25.5q-61 2 -109 -18t-84.5 -55.5t-63.5 -82.5t-46.5 -99.5t-31.5 -106t-20 -101.5l-29 -189q-6 -40 -9 -87.5t0.5 -96t15.5 -93.5 t35.5 -80.5t61 -58t92.5 -24.5q58 -2 105.5 16.5t84.5 52t65 78t48.5 94t33.5 101t21 99.5z" />
<glyph unicode="R" d="M617 568h-240l-99 -568h-234l252 1456l435 -1q98 -2 181.5 -30.5t143 -82.5t90 -133.5t21.5 -183.5q-6 -75 -32.5 -137.5t-68.5 -112t-99 -88t-125 -65.5l195 -609l-1 -13h-249zM410 762l205 -2q59 0 113 17t96.5 50t70 80.5t35.5 109.5q14 110 -42.5 174.5t-165.5 69.5 l-225 1z" />
<glyph unicode="S" d="M843 382q7 55 -13 95t-55 69t-80 49t-88 35q-75 26 -147.5 64t-129 90.5t-89 121.5t-26.5 159q6 100 55 177.5t123 130t166 79t184 24.5q97 -2 178.5 -35t140.5 -91.5t91 -139.5t29 -179h-233q-1 53 -14.5 98t-41 78t-68.5 52t-98 20q-49 1 -96 -12.5t-85.5 -40.5 t-64 -67.5t-31.5 -92.5q-6 -53 16.5 -90.5t60 -64t83 -45t86.5 -32.5q77 -27 148.5 -67t125.5 -94.5t84.5 -126t24.5 -161.5q-7 -103 -56 -179.5t-124 -127t-168 -75t-186 -22.5q-100 2 -188 34.5t-152.5 91.5t-101 143t-33.5 188h234q1 -60 17.5 -108t49 -82t79.5 -53 t108 -20q49 -1 97 11.5t87.5 38.5t66.5 65t34 92z" />
<glyph unicode="T" d="M1259 1258h-433l-218 -1258h-233l218 1258h-431l35 198h1097z" />
<glyph unicode="U" d="M1213 1456l-165 -973q-16 -107 -61 -199.5t-115.5 -161t-164 -106.5t-206.5 -36q-105 2 -183.5 43.5t-128.5 110t-71 158t-10 188.5l168 976h230l-164 -976q-6 -50 -1.5 -103t24 -97t57.5 -73t99 -31q66 -3 116.5 23t86.5 69.5t58.5 99.5t31.5 114l168 974h231z" />
<glyph unicode="V" d="M554 368l464 1088h262l-665 -1456h-223l-208 1456h249z" />
<glyph unicode="W" d="M824 507l250 949h221l-408 -1456h-224l-2 964l-303 -964h-224l47 1456h216l-47 -942l291 942h183v-949z" />
<glyph unicode="X" d="M649 915l356 541h287l-523 -732l294 -724h-263l-193 550l-365 -550h-288l535 744l-285 712h263z" />
<glyph unicode="Y" d="M620 762l415 694h271l-610 -945l-90 -511h-228l93 541l-274 915h251z" />
<glyph unicode="Z" d="M315 196h708l-32 -196h-987l25 171l855 1087h-679l31 198h961l-25 -167z" />
<glyph unicode="[" d="M951 1489h-187l-254 -1625h188l-30 -187h-415l313 2000h415z" />
<glyph unicode="\" d="M378 1456h205l286 -1581h-206z" />
<glyph unicode="]" d="M556 1677h416l-312 -2000h-417l30 187h189l254 1625h-190z" />
<glyph unicode="^" d="M432 683h-210l444 773h165l175 -773h-190l-98 468l-3 71l-37 -90z" />
<glyph unicode="_" d="M900 -188h-892l33 188h892z" />
<glyph unicode="`" d="M922 1205h-172l-209 273h252z" />
<glyph unicode="a" d="M726 0q-8 26 -9 52t0 53q-66 -59 -143.5 -92.5t-167.5 -31.5q-68 1 -129 23t-106 62.5t-70 98t-21 130.5q4 71 28.5 126t63.5 95.5t90.5 68.5t109.5 45.5t119.5 24.5t122.5 7l177 -1l12 73q6 44 -4.5 78.5t-34.5 58t-59 36t-78 13.5q-38 1 -72 -7.5t-62 -27t-47 -46.5 t-27 -67l-233 -1q7 86 52 149t112 104t147 60.5t157 18.5q84 -2 157.5 -26.5t126.5 -71.5t80.5 -116t18.5 -159l-79 -483q-9 -57 -12 -115t15 -114l-2 -18h-233zM464 172q80 -2 150 34t119 99l37 204l-135 1q-49 0 -102 -8t-99 -28.5t-78 -57.5t-39 -95q-5 -37 4.5 -64.5 t29.5 -46t49 -28t64 -10.5z" />
<glyph unicode="b" d="M1061 535q-8 -67 -26 -134.5t-47 -130t-68.5 -116.5t-91.5 -93.5t-116 -61.5t-141 -20q-84 2 -154 35.5t-118 102.5l-37 -117h-213l266 1536h234l-106 -558q59 62 130 94t157 30q74 -2 129.5 -26t94.5 -64.5t63.5 -94t37 -113.5t14 -123.5t-4.5 -124.5zM831 557 q4 35 5.5 74.5t-2.5 77.5t-15 73.5t-32 62.5t-53 43.5t-79 18.5q-80 2 -138.5 -37.5t-101.5 -103.5l-78 -449q23 -67 71 -104t120 -39q75 -2 128.5 30.5t89 85t55 117.5t27.5 128z" />
<glyph unicode="c" d="M534 169q43 -1 84.5 11.5t75 37t57 59t31.5 78.5l220 1q-7 -88 -52 -158.5t-113 -119.5t-151 -75t-165 -24q-116 2 -198 47.5t-132.5 120t-69.5 171t-8 201.5l4 37q13 112 58 212.5t117.5 175.5t170.5 118t217 40q89 -2 162.5 -32.5t125 -84t78.5 -127.5t22 -164l-219 1 q3 44 -9 82.5t-36 67.5t-60 46t-82 19q-75 3 -130 -28.5t-93 -82.5t-60 -115t-31 -128l-4 -36q-4 -37 -4.5 -77t4.5 -78.5t17.5 -73.5t35 -61.5t56 -43t81.5 -17.5z" />
<glyph unicode="d" d="M110 543q8 67 27 135t48.5 131t70 117t93 94t117.5 62t142 20t142 -31t113 -88l103 553h234l-266 -1536h-210l15 110q-60 -64 -133 -98t-163 -32q-71 2 -125 26.5t-93.5 65t-65 94t-39 113t-16 121.5t3.5 121zM341 521q-5 -52 -3.5 -111.5t19 -111t55.5 -86t106 -36.5 q77 -2 134 34t100 96l83 472q-24 62 -71 94.5t-113 34.5q-75 2 -130 -31t-91.5 -86t-57.5 -119t-28 -129z" />
<glyph unicode="e" d="M547 -20q-110 2 -197 43.5t-144.5 111.5t-84.5 163.5t-17 200.5l5 42q8 73 32 144t61.5 134t87.5 115.5t111.5 90.5t132 58.5t149.5 18.5q114 -3 193.5 -48t127 -119t64 -169.5t3.5 -198.5l-15 -101h-722q-5 -58 8.5 -110.5t44 -93t77 -65t108.5 -25.5q88 -3 165.5 33 t137.5 99l117 -122q-37 -53 -87.5 -91.5t-109.5 -63.5t-122.5 -36.5t-125.5 -10.5zM665 910q-60 2 -108 -21t-85.5 -61t-65.5 -87t-47 -99l492 -1l4 21q7 49 -2 93t-34 78t-64 54.5t-90 22.5z" />
<glyph unicode="f" d="M310 0l157 904h-283l31 178h278l11 67q16 102 58.5 183t107.5 137t151.5 85t190.5 28q66 -1 130 -12t128 -24l-42 -190q-48 14 -98 22t-101 9q-120 1 -194 -59t-97 -178l-13 -69l397 1l-32 -178h-389l-157 -904h-234z" />
<glyph unicode="g" d="M111 542q8 68 27.5 136.5t49.5 131.5t71 117t94.5 93.5t118.5 61.5t143 20q81 -2 149.5 -32.5t116.5 -96.5l35 109h213l-179 -1053q-15 -106 -61.5 -191.5t-117.5 -145t-163.5 -90.5t-199.5 -29q-54 1 -107 13t-101.5 34.5t-91 55.5t-74.5 76l124 146q46 -63 108.5 -98.5 t141.5 -37.5q62 -2 114 16t92 52.5t67 83t39 108.5l15 74q-60 -57 -130.5 -87t-154.5 -28q-71 1 -126 25.5t-95 64.5t-66 93t-40 112.5t-17 122t3 122.5zM343 521q-6 -53 -3.5 -112.5t21 -110.5t57.5 -85.5t107 -36.5q76 -2 133 32.5t101 93.5l84 480q-52 122 -185 125 q-75 2 -130.5 -30.5t-93 -86t-59 -119t-29.5 -129.5z" />
<glyph unicode="h" d="M432 931q31 38 67 70t77 54.5t86.5 35t96.5 11.5q94 -2 157.5 -38.5t100 -96.5t48 -138t2.5 -162l-112 -667h-233l112 670q6 48 0 90t-25.5 74t-54 50.5t-87.5 20.5q-76 2 -137.5 -31t-112.5 -87l-138 -787h-233l266 1536h234z" />
<glyph unicode="i" d="M284 1082h561l-153 -884h312l-35 -198h-873l35 198h325l119 685h-326zM639 1358q0 29 10 53t28 42t42.5 28t53.5 11q28 1 52.5 -8t43 -25.5t29 -40t10.5 -52.5t-11 -53.5t-29 -42.5t-43 -28t-53 -10q-28 -1 -52.5 8t-42.5 25.5t-28 40t-10 52.5z" />
<glyph unicode="j" d="M377 1082h539l-187 -1099q-15 -102 -55 -181t-103 -132.5t-147.5 -81t-187.5 -26.5q-99 0 -196 18l36 194q79 -15 162 -15q54 -1 97.5 14t75.5 44t53 71t29 95l153 900h-304zM709 1358q0 29 10 53t28 42t42.5 28t53.5 11q28 1 52.5 -8t42.5 -25.5t28.5 -40t10.5 -52.5 t-10.5 -53.5t-28.5 -42t-42.5 -27.5t-53.5 -11q-28 -1 -52.5 8t-42.5 25.5t-28 40t-10 52.5z" />
<glyph unicode="k" d="M495 471l-156 -131l-59 -340h-233l266 1536h234l-156 -894l110 105l364 335l296 -1l-493 -459l352 -622h-275z" />
<glyph unicode="l" d="M355 1536h569l-232 -1338h320l-35 -198h-889l35 198h333l198 1139h-334z" />
<glyph unicode="m" d="M367 1083l-22 -116q40 61 94 98.5t129 36.5q60 0 103.5 -26.5t60.5 -86.5q41 51 91 82.5t118 29.5q64 -1 104.5 -29.5t62 -73t27 -99.5t0.5 -109l-131 -790h-217l133 794q2 21 1 41t-8.5 36t-23 25.5t-40.5 9.5q-38 0 -63 -19.5t-45 -50.5l-145 -836h-212l134 793 q2 21 1 41t-8 36t-21.5 26t-39.5 10q-38 1 -64 -18t-47 -48l-145 -840h-217l188 1082z" />
<glyph unicode="n" d="M443 1083l-20 -152q66 78 150.5 125.5t189.5 45.5q93 -2 155 -37.5t97.5 -94t47 -135t2.5 -159.5l-113 -676h-233l112 673q6 50 1 92t-24 73t-54 49t-90 19q-39 1 -74 -8t-65.5 -26.5t-58 -41.5t-51.5 -53l-135 -777h-234l188 1082z" />
<glyph unicode="o" d="M99 544q14 112 58.5 214.5t117 179.5t171 122t219.5 42q115 -3 197.5 -49.5t133 -122.5t70 -173.5t8.5 -202.5l-2 -22q-14 -112 -59 -213.5t-117.5 -178t-171 -120.5t-218.5 -41q-114 3 -196.5 49t-133.5 121t-70.5 172t-8.5 202zM330 523q-4 -37 -4.5 -77t5.5 -79 t19 -74t36 -62t56.5 -44t80.5 -18q75 -3 130.5 30t93.5 86t60.5 119t30.5 129l2 20q6 55 3 117t-22.5 114.5t-61 88t-111.5 37.5q-75 2 -131 -31t-94 -86.5t-60.5 -119.5t-30.5 -129z" />
<glyph unicode="p" d="M1058 536q-8 -66 -26 -133.5t-47 -130t-69 -117t-91.5 -94t-115.5 -62t-141 -20.5q-78 2 -145.5 30t-118.5 88l-96 -513h-233l259 1498l213 1l-16 -110q60 63 133 97t162 32q74 -2 129.5 -26t95 -64t64 -93t37 -113t14 -123.5t-5.5 -124.5zM827 558q4 35 4.5 74t-4 77 t-16.5 73.5t-33.5 62.5t-53.5 43.5t-78 17.5q-75 2 -131 -32t-99 -92l-84 -487q24 -61 71 -92t114 -33q50 -2 90.5 13t73 42t57 63.5t42 77.5t28 85t16.5 86z" />
<glyph unicode="q" d="M112 543q12 103 47.5 204t97 181t149.5 128.5t206 45.5q79 -2 146.5 -32.5t116.5 -93.5l36 106h211l-260 -1498h-234l97 508q-58 -56 -127.5 -85t-150.5 -27q-72 1 -127 25.5t-94.5 65t-65 93.5t-39 113t-16 122.5t3.5 122.5zM342 522q-5 -52 -3.5 -112.5t19.5 -113 t56.5 -88t106.5 -37.5q75 -2 130.5 32t99.5 91l87 498q-26 58 -72.5 87t-110.5 31q-75 2 -130 -31t-92.5 -86.5t-58.5 -119.5t-29 -130z" />
<glyph unicode="r" d="M945 1104q50 -1 100 -7.5t98 -22.5l-62 -234q-51 12 -101.5 19.5t-103.5 8.5q-112 1 -194.5 -47.5t-139.5 -143.5l-118 -677h-233l188 1082l218 1l-27 -171q36 43 77.5 78.5t88.5 61t99 39t110 13.5z" />
<glyph unicode="s" d="M787 299q6 42 -15.5 68t-55.5 42t-73.5 25t-67.5 16q-41 10 -85 23t-85.5 31t-79 42.5t-64.5 56.5t-42.5 72.5t-12.5 91.5q3 58 24 105.5t56 85t81 65.5t97 45.5t104 26t104 7.5q79 -1 153.5 -22.5t132 -64.5t91.5 -107.5t33 -151.5l-232 1q1 41 -14 71.5t-40.5 51 t-60 30.5t-73.5 10q-35 0 -73 -7t-70.5 -23.5t-56 -44t-29.5 -67.5q-6 -41 12.5 -66t49.5 -40t67.5 -23t65.5 -14q43 -10 89 -22.5t90 -30t83 -41.5t68 -57t44.5 -75t13.5 -96q-5 -92 -52 -156t-118 -104t-155 -58t-162 -16q-81 1 -159 24.5t-138.5 68.5t-97 112.5 t-35.5 157.5l226 -1q1 -47 18.5 -81t46.5 -56t68 -33t83 -11q35 0 75.5 6t76.5 21.5t62 42.5t32 69z" />
<glyph unicode="t" d="M745 1344l-46 -262h398l-32 -178h-396l-86 -520q-5 -43 -1 -79.5t20 -64t45.5 -44t76.5 -17.5q58 -2 115 8t114 22l10 -167q-34 -20 -73 -32t-80 -19t-82 -9.5t-80 -1.5q-86 1 -147 32.5t-97.5 84.5t-50 123.5t-5.5 151.5l87 532h-256l31 178h256l46 262h233z" />
<glyph unicode="u" d="M754 148q-30 -38 -65.5 -69.5t-75.5 -54t-85 -34.5t-95 -11q-98 2 -160.5 43t-96 106.5t-42 147.5t0.5 166l106 640h234l-107 -643q-5 -45 -6 -91.5t11 -84t42 -62t87 -25.5q85 -3 149.5 32.5t111.5 104.5l134 769h234l-187 -1082h-210z" />
<glyph unicode="v" d="M531 302l4 -76l32 84l373 772h248l-580 -1082h-201l-246 1082l228 1z" />
<glyph unicode="w" d="M305 356l-8 -71l24 71l277 726h153l24 -734l-3 -74l27 90l225 718h216l-393 -1082h-196l-31 724l1 17l-6 -17l-282 -724h-196l-16 1082l200 1z" />
<glyph unicode="x" d="M621 717l307 365h272l-462 -542l292 -540h-245l-201 378l-318 -378h-273l477 558l-283 524h245z" />
<glyph unicode="y" d="M536 421l15 -115l429 776h268l-746 -1246q-32 -55 -71 -105t-86.5 -88t-105 -60t-125.5 -22q-33 1 -65.5 6.5t-64.5 13.5l52 185q22 -2 44 -4.5t43 -1.5q33 1 60.5 16.5t50 38.5t41.5 50.5t36 51.5l99 146l-265 1019h248z" />
<glyph unicode="z" d="M385 191h628l-30 -191h-942l27 167l705 721h-583l31 194h903l-25 -162z" />
<glyph unicode="{" d="M792 -359q-90 4 -152 48t-99 110.5t-50 147.5t-4 159l21 164q13 124 -35.5 188.5t-173.5 70.5l18 176q133 2 210 66t95 198l22 163q12 93 44.5 176t86.5 146.5t130 102.5t176 43l14 -141q-68 -2 -110 -32.5t-66.5 -77.5t-36 -104.5t-18.5 -112.5l-21 -163 q-17 -134 -90 -219.5t-195 -136.5q49 -26 83.5 -62.5t55.5 -81t28.5 -95.5t2.5 -105l-21 -164q-5 -43 -8.5 -97t6.5 -102.5t38 -83.5t86 -41z" />
<glyph unicode="|" d="M523 -410h-164l292 1866h164z" />
<glyph unicode="}" d="M186 -221q62 2 103.5 34.5t67.5 80.5t39.5 104.5t20.5 107.5l21 163q17 131 88 217t190 137q-48 27 -81.5 64.5t-53.5 82.5t-26.5 95.5t-1.5 103.5l21 164q6 47 11.5 101.5t-2.5 102t-37 81t-92 38.5l37 140q92 -4 154.5 -47t98.5 -109t47.5 -147t2.5 -161l-21 -164 q-6 -62 2 -109.5t33 -80t68 -50.5t106 -21l-18 -176q-133 -2 -210 -65.5t-95 -196.5l-22 -163q-12 -91 -45 -174t-88 -147t-131 -104t-174 -44z" />
<glyph unicode="~" d="M1146 747q-6 -68 -30.5 -133t-66 -116t-100.5 -82t-134 -30q-45 1 -84 12t-75 29.5t-69 43.5t-64 54q-18 17 -39 33t-43.5 29t-47 20.5t-50.5 7.5q-35 0 -64 -14.5t-50.5 -38.5t-35.5 -55t-20 -62l-156 20q7 68 31.5 131.5t66 112.5t100 78.5t133.5 28.5 q88 -2 159.5 -40.5t134.5 -96.5q18 -17 38.5 -33.5t42.5 -29.5t46 -21t51 -8q36 0 64.5 16t49.5 41.5t34.5 57t19.5 63.5z" />
<glyph unicode="&#xa0;" />
<glyph unicode="&#xa1;" d="M495 584h221l-159 -961h-237zM812 970q0 -30 -11 -55t-29.5 -43t-44 -28.5t-55.5 -10.5q-29 -1 -54 8t-43 26t-28.5 41t-10.5 53q0 30 10.5 56t28.5 45t43.5 30t55.5 12t55 -8.5t43.5 -27.5t29 -43t10.5 -55z" />
<glyph unicode="&#xa2;" d="M548 169q43 -1 84.5 11.5t75 37t57 59t31.5 78.5l220 1q-6 -79 -43.5 -144t-94.5 -113t-128 -77.5t-145 -38.5l-40 -228h-195l42 242q-82 23 -140.5 74t-93.5 120.5t-47.5 153.5t-3.5 174l4 37q12 100 49.5 192t98 164.5t142 121t181.5 62.5l39 222h196l-41 -229 q68 -16 122.5 -51.5t92.5 -86.5t56.5 -116t14.5 -141l-219 1q3 44 -9 82.5t-36 67.5t-60 46t-82 19q-75 3 -130 -28.5t-93 -82.5t-60 -115t-31 -128l-4 -36q-4 -37 -4.5 -77t4.5 -78.5t17.5 -73.5t35 -61.5t56 -43t81.5 -17.5z" />
<glyph unicode="&#xa3;" d="M500 604l-24 -185q-18 -132 -105 -229l687 3l-34 -193h-1017l34 192l69 -2q33 13 55.5 37t37.5 55t23.5 65t13.5 66l26 191h-157l33 190h151l31 245q12 99 54.5 180.5t108.5 139t152.5 88.5t186.5 29q90 -2 160.5 -31.5t117.5 -82t70 -125t19 -161.5l-230 1q2 43 -6 80.5 t-28.5 65t-53 43.5t-79.5 18q-52 1 -93.5 -19t-71.5 -54.5t-48.5 -79t-24.5 -90.5l-32 -247h303l-33 -190h-296z" />
<glyph unicode="&#xa4;" d="M808 76q-67 -45 -140.5 -71.5t-155.5 -24.5q-74 1 -142 25t-125 71l-118 -102l-119 154l123 102q-19 66 -25.5 134.5t2.5 137.5q11 85 44 160.5t87 143.5l-93 123l153 135l88 -115q64 39 133.5 62.5t146.5 22.5q70 -1 135 -23t120 -65l137 119l120 -155l-137 -115 q22 -69 29 -138.5t-2 -141.5q-11 -80 -41 -151t-78 -136l91 -119l-154 -136zM290 499q-7 -59 4.5 -118t41.5 -106.5t77.5 -78t113.5 -32.5q72 -2 134.5 27.5t110 80t78 114.5t38.5 131q7 58 -4.5 116.5t-41 105.5t-77.5 77.5t-113 32.5q-72 2 -134.5 -27t-110.5 -78.5 t-78.5 -113.5t-38.5 -131z" />
<glyph unicode="&#xa5;" d="M632 815l425 641h274l-510 -714h264l-26 -147h-346l-25 -143h347l-26 -146h-346l-53 -306h-235l54 306h-348l26 146h347l25 143h-348l26 147h285l-264 714h251z" />
<glyph unicode="&#xa6;" d="M330 -270l138 795h221l-139 -795h-220zM718 698h-221l132 758h221z" />
<glyph unicode="&#xa7;" d="M1096 461q-4 -51 -21 -93.5t-45 -78t-65 -63.5t-81 -51q52 -57 70.5 -126t12.5 -146q-8 -104 -58.5 -177t-126.5 -118.5t-168.5 -65.5t-184.5 -18q-101 1 -188 27.5t-150.5 78.5t-98 131.5t-30.5 187.5l237 2q-3 -59 13.5 -102.5t48.5 -72.5t78.5 -43.5t102.5 -15.5 q45 -1 93.5 8.5t89.5 31t70.5 57t37.5 86.5q8 53 -17.5 89t-67 60.5t-90.5 40.5t-87 28q-78 26 -152.5 58.5t-130.5 80.5t-87.5 115.5t-23.5 162.5q4 51 21.5 93.5t45.5 77.5t64.5 63.5t80.5 51.5q-52 58 -70.5 127t-11.5 146q8 103 59.5 176t128 119.5t169 67t183.5 19.5 q101 -2 183.5 -30t140.5 -82t87.5 -133.5t24.5 -184.5l-232 1q3 53 -10.5 96t-41.5 73.5t-70 48t-96 18.5q-47 1 -95 -8.5t-89 -31.5t-70 -58t-37 -88q-8 -57 15.5 -93t63.5 -60t89 -38.5t91 -27.5q78 -25 152.5 -57.5t131 -81t88 -116t23.5 -162.5zM603 674 q-38 12 -74.5 24t-72.5 26q-59 -26 -95.5 -68t-46.5 -107q-9 -57 13 -94.5t61 -62.5t87.5 -41t92.5 -30q37 -12 73.5 -24t72.5 -26q57 26 97.5 68t50.5 107q6 36 -3.5 64.5t-29.5 51t-47.5 39.5t-58.5 30.5t-62 23.5t-58 19z" />
<glyph unicode="&#xa8;" d="M384 1363q1 52 36.5 86t87.5 36q25 0 47.5 -8t39 -23.5t26 -37t9.5 -47.5t-10 -48t-27 -38t-39.5 -25t-47.5 -10q-25 0 -47.5 8t-39 23t-26 36.5t-9.5 47.5zM825 1362q1 52 36.5 85.5t86.5 35.5q25 0 47.5 -8t39 -23t26 -36.5t9.5 -47.5q-1 -52 -36.5 -86t-87.5 -36 q-25 0 -47.5 8t-39 23.5t-25.5 37t-9 47.5z" />
<glyph unicode="&#xa9;" d="M811 442q-6 -56 -26.5 -100t-53.5 -74.5t-78.5 -46.5t-103.5 -14q-61 1 -104.5 26t-71 64.5t-39 91t-8.5 107.5l8 90q6 59 27 112.5t57 93.5t86.5 63.5t114.5 22.5q112 -2 170 -65.5t53 -173.5l-115 1q1 31 -3.5 56t-17.5 43t-35.5 28t-56.5 10q-40 0 -69 -16.5 t-49 -43.5t-31.5 -61t-15.5 -69l-8 -92q-2 -31 1 -63.5t15 -59.5t35.5 -45t61.5 -19q34 -1 58.5 8.5t41.5 27t28 42.5t18 55zM169 534q-10 -85 9 -167t64.5 -147t115.5 -105.5t163 -42.5q99 -3 185 36.5t152.5 106.5t108.5 154.5t53 180.5q10 85 -9.5 166t-64.5 145.5 t-115 104.5t-161 42q-99 3 -185.5 -36t-153 -105t-109.5 -152.5t-53 -180.5zM78 534q7 75 32.5 147t65.5 135.5t93 117t116.5 91.5t136 58.5t151.5 18.5q74 -2 137 -24t114 -60.5t89 -90.5t62 -112.5t33.5 -128t2.5 -136.5q-7 -75 -32.5 -147t-65 -136t-92.5 -117.5 t-116.5 -91.5t-136 -59t-150.5 -19q-111 3 -197.5 50.5t-144 125t-83.5 176t-15 202.5z" />
<glyph unicode="&#xaa;" d="M770 704q-6 47 -3 94q-45 -51 -101.5 -79.5t-125.5 -27.5q-50 0 -91 15.5t-70 44t-44 69.5t-13 92q3 70 36.5 116.5t84.5 73.5t112.5 38t120.5 11l136 -1l8 53q3 25 0 47.5t-12.5 39.5t-28 27t-46.5 11q-54 2 -92 -22t-52 -76l-170 13q8 61 39 105.5t76 73.5t100 42 t112 12q62 -1 110.5 -21t80.5 -56t46.5 -86.5t8.5 -112.5l-49 -314q-8 -46 -9.5 -90.5t5.5 -91.5h-169zM594 833q54 -1 102.5 26t81.5 67l18 107h-123q-27 -1 -56.5 -7.5t-54.5 -20.5t-42.5 -36t-20.5 -53q-3 -23 4 -39t20.5 -25.5t32 -14t38.5 -4.5z" />
<glyph unicode="&#xab;" d="M372 492l167 -388h-148l-219 389l2 19l341 391h176zM718 492l167 -388h-148l-219 389l2 19l341 391h176z" />
<glyph unicode="&#xac;" d="M952 374h-196l46 260h-616l30 171h811z" />
<glyph unicode="&#xad;" d="M1009 542h-778l34 193h778z" />
<glyph unicode="&#xae;" d="M76 534q7 75 32 146.5t65 135.5t93 117t116.5 91.5t136 59t151.5 18.5q111 -3 197.5 -50.5t143.5 -125t82.5 -176t15.5 -202.5q-8 -75 -33 -147t-64.5 -135.5t-92.5 -117t-116.5 -91.5t-136 -59t-151.5 -19q-74 2 -137.5 24.5t-114.5 61t-89.5 90.5t-62.5 113t-33 128.5 t-2 137.5zM167 533q-10 -85 9.5 -166.5t64.5 -146t115 -105t162 -42.5q99 -3 185.5 36t153 106t108.5 154t53 180q10 85 -9.5 166.5t-64.5 146t-115 104.5t-162 42q-99 3 -185.5 -36t-153 -105t-109 -153t-52.5 -181zM480 484l-40 -252h-112l100 637l198 -1q43 -1 83 -11.5 t70 -33t47 -57.5t14 -84q-2 -34 -16 -60t-35.5 -45.5t-48.5 -34t-56 -26.5l95 -284h-109l-74 252h-116zM495 585h106q21 1 42.5 6.5t39.5 17t30.5 28t16.5 40.5q5 28 -2 45.5t-22 27.5t-36 13.5t-45 4.5l-100 1z" />
<glyph unicode="&#xaf;" d="M1069 1299h-706l26 157h705z" />
<glyph unicode="&#xb0;" d="M453 1199q3 55 26.5 106t61.5 89.5t88.5 61t107.5 21.5q52 -1 94 -23.5t72 -58.5t45 -82.5t13 -95.5q-3 -55 -25.5 -105t-60 -88t-87.5 -60t-106 -21q-52 1 -95 22t-74 56.5t-47 81.5t-13 96zM589 1202q-2 -24 4.5 -45.5t20.5 -37.5t34 -25.5t44 -9.5q27 0 50 11t40.5 29 t29 41t14.5 49q2 23 -4 45t-18.5 39.5t-32 28t-44.5 10.5q-27 0 -51 -11.5t-42.5 -30.5t-30.5 -43t-14 -50z" />
<glyph unicode="&#xb1;" d="M748 896h335l-31 -196h-334l-61 -390h-207l61 390h-349l31 196h348l60 379h207zM905 1h-823l35 193h823z" />
<glyph unicode="&#xb2;" d="M919 667h-594l23 132l313 258q19 16 41.5 35.5t42.5 42t35.5 47t19.5 51.5q6 42 -15.5 66t-63.5 24q-58 0 -91.5 -35t-45.5 -88l-181 -1q6 63 33 113.5t69.5 85.5t98 53.5t117.5 17.5q54 -1 103.5 -15.5t86.5 -43.5t58 -73t18 -104q-3 -51 -26 -94.5t-57 -80.5t-75 -69 t-78 -60l-158 -115h352z" />
<glyph unicode="&#xb3;" d="M590 1131h82q25 1 49 7t44.5 19t34 32.5t17.5 46.5q3 22 -3 37.5t-19 25.5t-31 15t-37 5q-42 1 -74.5 -17.5t-46.5 -57.5l-184 -1q6 58 33 101t68.5 70.5t93.5 40.5t106 12q51 0 101.5 -12.5t90 -38.5t63.5 -67.5t21 -100.5q-2 -36 -15.5 -64t-35.5 -50t-49.5 -39 t-57.5 -30q58 -20 87 -64.5t27 -105.5q-2 -65 -33 -111t-79 -75t-106 -42t-114 -12t-106 16t-87.5 45t-59.5 75t-22 105l177 -1q2 -48 33 -69.5t77 -22.5q24 0 48.5 6.5t44.5 19.5t33.5 32.5t17.5 45.5q4 28 -4 46t-23.5 28.5t-37 15t-45.5 5.5l-90 1z" />
<glyph unicode="&#xb4;" d="M690 1478h282l-312 -273h-192z" />
<glyph unicode="&#xb5;" d="M489 1082l-102 -622q-5 -44 -7 -94t9.5 -92t41 -70.5t88.5 -30.5q154 -4 245 121l138 788h233l-187 -1082h-210l14 88q-51 -53 -111.5 -81.5t-135.5 -27.5q-52 0 -100 13t-90 44l-86 -452h-233l260 1498h233z" />
<glyph unicode="&#xb6;" d="M658 0l90 520l-67 1q-101 3 -181 37.5t-134 95t-78.5 144t-15.5 184.5q10 110 56 198t118.5 149.5t168 94.5t203.5 33l296 -1l-253 -1456h-203z" />
<glyph unicode="&#xb7;" d="M501 712q0 29 10.5 54t28.5 43.5t43 29t54 11.5t54 -8.5t43 -26.5t28 -41.5t10 -53.5q0 -30 -10.5 -54.5t-28.5 -42.5t-43 -28.5t-55 -11.5q-29 -1 -53.5 8t-42.5 26.5t-28 41.5t-10 53z" />
<glyph unicode="&#xb8;" d="M524 3l-20 -57q62 -14 93 -57t29 -106q-2 -69 -35.5 -113.5t-84.5 -70t-111.5 -36t-116.5 -11.5l7 137q24 1 49.5 6t47 15.5t37 28.5t20.5 47q4 27 -8.5 42t-33 22.5t-44.5 10t-43 4.5l45 136z" />
<glyph unicode="&#xb9;" d="M761 662h-180l99 568l-204 -48l27 152l365 115h23z" />
<glyph unicode="&#xba;" d="M348 1140q9 75 41.5 137.5t82.5 107.5t116 69t143 22q73 -2 130 -28t95.5 -70.5t56 -105t10.5 -131.5l-13 -117q-9 -75 -41.5 -137.5t-82.5 -107t-116 -68t-142 -21.5q-72 2 -129.5 27.5t-96 70t-56.5 105t-11 131.5zM510 1021q-3 -36 3 -69.5t22 -59t43 -41.5t68 -17 q42 -1 75.5 14t57.5 41t38.5 60.5t19.5 73.5l13 119q3 36 -2.5 69.5t-22 59.5t-44.5 41.5t-68 16.5q-42 1 -75.5 -13.5t-57.5 -40.5t-38.5 -60.5t-19.5 -73.5z" />
<glyph unicode="&#xbb;" d="M439 938l220 -388l-2 -20l-341 -391h-177l319 410l-167 389h148zM789 938l220 -388l-2 -20l-341 -391h-177l319 410l-167 389h148z" />
<glyph unicode="&#xbc;" d="M429.015 751h-162.004l89.1025 511.214l-183.605 -43.2012l24.3008 136.804l328.509 103.503h20.7002zM348 234l-119 73l652 929l120 -73zM1000.62 280.808l90.9023 0.900391l-25.2012 -135.004h-84.6025l-26.1006 -146.704h-163.805l26.1016 146.704h-310.509 l11.7002 117.003l389.711 445.512l165.604 0.900391zM686.51 281.708h153.904l45.9014 218.706l-14.4004 -18.9014z" />
<glyph unicode="&#xbd;" d="M284 234l-119 73l652 929l120 -73zM400.015 749h-162.004l89.1025 511.214l-183.605 -43.2012l24.3008 136.804l328.509 103.503h20.7002zM1062.72 0h-534.614l20.7002 118.803l281.708 232.207q17.0996 14.4004 37.3506 31.9502q20.251 17.5508 38.251 37.8018 q18.001 20.25 31.9512 42.3008t17.5508 46.3516q5.39941 37.8008 -13.9512 59.4014t-57.1514 21.6006q-52.2012 0 -82.3525 -31.501q-30.1504 -31.501 -40.9512 -79.2021l-162.904 -0.900391q5.40039 56.7021 29.7012 102.153t62.5518 76.9521t88.2021 48.1514 t105.753 15.75q48.6016 -0.899414 93.1523 -13.9502q44.5518 -13.0508 77.8525 -39.1514t52.2012 -65.7012q18.9004 -39.6016 16.2002 -93.6025q-2.7002 -45.9014 -23.4004 -85.0527q-20.7002 -39.1504 -51.3018 -72.4521q-30.6006 -33.3008 -67.501 -62.1016 q-36.9014 -28.8008 -70.2021 -54.001l-142.204 -103.503h316.809z" />
<glyph unicode="&#xbe;" d="M422 234l-119 73l652 929l120 -73zM1039.62 280.808l90.9023 0.900391l-25.2012 -135.004h-84.6025l-26.1006 -146.704h-163.805l26.1016 146.704h-310.509l11.7002 117.003l389.711 445.512l165.604 0.900391zM725.51 281.708h153.904l45.9014 218.706 l-14.4004 -18.9014zM321.812 1162.51h73.8018q22.501 0.899414 44.1016 6.2998t40.0508 17.1006q18.4512 11.7002 30.6006 29.251q12.1504 17.5498 15.751 41.8506q2.7002 19.8008 -2.7002 33.751t-17.1006 22.9512q-11.7002 9 -27.9004 13.5q-16.2012 4.5 -33.3008 4.5 q-37.8018 0.900391 -67.0518 -15.75q-29.251 -16.6504 -41.8516 -51.752l-165.604 -0.899414q5.40039 52.2012 29.7012 90.9023t61.6514 63.4512q37.3506 24.751 84.1523 36.4512q46.8008 11.7002 95.4023 10.8008q45.9014 0 91.3525 -11.251 q45.4512 -11.25 81.002 -34.6504q35.5508 -23.4014 57.1523 -60.752q21.5996 -37.3506 18.9004 -90.4521q-1.80078 -32.4014 -13.9512 -57.6016q-12.1504 -25.2012 -31.9502 -45.002q-19.8008 -19.7998 -44.5518 -35.1006q-24.75 -15.2998 -51.751 -27.001 q52.2012 -18 78.3018 -58.0508q26.1006 -40.0518 24.3008 -94.9531q-1.7998 -58.502 -29.7012 -99.9023q-27.9004 -41.4014 -71.1016 -67.502t-95.4023 -37.8008q-52.2012 -11.7012 -102.603 -10.8008t-95.4033 14.4004q-45.001 13.5 -78.752 40.501t-53.5508 67.502 q-19.8008 40.501 -19.8008 94.5029l159.304 -0.900391q1.80078 -43.2012 29.7012 -62.5518t69.3018 -20.25q21.6006 0 43.6514 5.84961q22.0508 5.85059 40.0508 17.5508q18.001 11.7002 30.1514 29.251q12.1504 17.5498 15.75 40.9512q3.60059 25.2002 -3.59961 41.4004 q-7.2002 16.2012 -21.1514 25.6514q-13.9502 9.4502 -33.3008 13.5t-40.9512 4.9502l-81.002 0.900391z" />
<glyph unicode="&#xbf;" d="M740 656q-6 -62 -17 -109t-31 -86.5t-51.5 -75.5t-78.5 -76q-36 -30 -74.5 -66t-71.5 -76.5t-57 -86t-30 -94.5q-5 -39 1 -72.5t24 -57.5t48 -38t71 -15q44 -1 80 12t63 37t45.5 58t26.5 75l234 1q-10 -93 -50 -164.5t-102 -119.5t-142.5 -72.5t-170.5 -22.5 q-86 2 -157 27.5t-120.5 73.5t-73.5 117.5t-16 159.5q6 75 36.5 137.5t75.5 116.5t99 101.5t108 92.5q29 24 48.5 48.5t33 50.5t21 56.5t12.5 66.5zM568 959q0 57 32.5 92.5t89.5 37.5q57 1 91.5 -32.5t34.5 -89.5q0 -57 -34.5 -90.5t-91.5 -34.5q-56 -2 -89 29.5t-33 87.5z " />
<glyph unicode="&#xc0;" d="M787 338h-440l-156 -338h-249l712 1456h206l197 -1456h-234zM442 543h322l-60 568zM869 1553h-172l-209 273h252z" />
<glyph unicode="&#xc1;" d="M787 338h-440l-156 -338h-249l712 1456h206l197 -1456h-234zM442 543h322l-60 568zM892 1823h282l-312 -273h-192z" />
<glyph unicode="&#xc2;" d="M787 338h-440l-156 -338h-249l712 1456h206l197 -1456h-234zM442 543h322l-60 568zM1123 1625l-3 -29l-182 1l-120 136l-169 -135l-191 -1l3 30l293 239h134z" />
<glyph unicode="&#xc3;" d="M787 338h-440l-156 -338h-249l712 1456h206l197 -1456h-234zM442 543h322l-60 568zM1166 1856q-4 -45 -20.5 -88.5t-45 -77t-68 -54t-89.5 -20.5q-38 0 -70.5 15t-63.5 33t-63 32.5t-69 13.5q-23 -1 -41 -10t-31 -23.5t-21.5 -33.5t-14.5 -39l-123 28q5 45 22 88.5 t45.5 78t68.5 55t90 20.5q37 0 69.5 -15t64 -33t64 -32.5t69.5 -13.5q23 1 41 10t31.5 23.5t23 33t15.5 38.5z" />
<glyph unicode="&#xc4;" d="M787 338h-440l-156 -338h-249l712 1456h206l197 -1456h-234zM442 543h322l-60 568zM457 1712q1 52 36.5 86t87.5 36q25 0 47.5 -8t39 -23.5t26 -37t9.5 -47.5t-10 -48t-27 -38t-39.5 -25t-47.5 -10q-25 0 -47.5 8t-39 23t-26 36.5t-9.5 47.5zM898 1711q1 52 36.5 85.5 t86.5 35.5q25 0 47.5 -8t39 -23t26 -36.5t9.5 -47.5q-1 -52 -36.5 -86t-87.5 -36q-25 0 -47.5 8t-39 23.5t-25.5 37t-9 47.5z" />
<glyph unicode="&#xc5;" d="M787 338h-440l-156 -338h-249l712 1456h206l197 -1456h-234zM442 543h322l-60 568zM604 1726q1 44 19.5 82t48.5 66t69.5 43.5t83.5 15.5q40 0 74.5 -15t59.5 -40.5t39 -60.5t13 -75q-1 -44 -19 -81.5t-47 -65t-68 -42.5t-82 -15q-40 0 -75.5 14t-61.5 39t-41 59.5 t-13 75.5zM711 1729q-2 -19 3 -36.5t16.5 -31t27.5 -21.5t36 -8q22 0 41 9t33.5 24t23.5 34t12 40q2 19 -2.5 36.5t-14.5 31.5t-25.5 22.5t-36.5 8.5q-22 0 -41.5 -9t-35 -24t-25.5 -35t-12 -41z" />
<glyph unicode="&#xc6;" d="M1050 0h-522l59 340h-247l-162 -340h-251l758 1456h597l-35 -194h-278l-71 -412h249l-35 -194h-248l-80 -463h300zM624 553l104 597l-287 -597h183z" />
<glyph unicode="&#xc7;" d="M1062 449q-18 -105 -65.5 -192.5t-119.5 -150t-165 -96.5t-201 -31q-88 2 -156 30t-117.5 75t-82 109.5t-49 134t-19 148.5t7.5 152l30 199q13 80 38 160t63 153t88.5 135.5t114.5 108t141.5 70.5t168.5 23q108 -2 187.5 -39.5t132.5 -102t80.5 -151t30.5 -187.5h-233 q-1 55 -11 106t-34 90t-65.5 63.5t-104.5 26.5q-61 2 -108.5 -17.5t-85 -53.5t-65 -80t-47.5 -97t-32.5 -104t-20.5 -102l-31 -202q-6 -42 -9.5 -91t-1 -99t13.5 -96.5t34.5 -83.5t61.5 -60t96 -25q65 -2 116 18.5t88.5 58t62.5 88t39 109.5zM577 5l-20 -57q62 -14 93 -57 t29 -106q-2 -69 -35.5 -113.5t-84.5 -70t-111.5 -36t-116.5 -11.5l7 137q24 1 49.5 6t47 15.5t37 28.5t20.5 47q4 27 -8.5 42t-33 22.5t-44.5 10t-43 4.5l45 136z" />
<glyph unicode="&#xc8;" d="M982 653h-581l-79 -457h680l-34 -196h-915l252 1456h909l-35 -198h-673l-72 -411h582zM873 1548h-172l-209 273h252z" />
<glyph unicode="&#xc9;" d="M982 653h-581l-79 -457h680l-34 -196h-915l252 1456h909l-35 -198h-673l-72 -411h582zM896 1818h282l-312 -273h-192z" />
<glyph unicode="&#xca;" d="M982 653h-581l-79 -457h680l-34 -196h-915l252 1456h909l-35 -198h-673l-72 -411h582zM1127 1620l-3 -29l-182 1l-120 136l-169 -135l-191 -1l3 30l293 239h134z" />
<glyph unicode="&#xcb;" d="M982 653h-581l-79 -457h680l-34 -196h-915l252 1456h909l-35 -198h-673l-72 -411h582zM461 1707q1 52 36.5 86t87.5 36q25 0 47.5 -8t39 -23.5t26 -37t9.5 -47.5t-10 -48t-27 -38t-39.5 -25t-47.5 -10q-25 0 -47.5 8t-39 23t-26 36.5t-9.5 47.5zM902 1706q1 52 36.5 85.5 t86.5 35.5q25 0 47.5 -8t39 -23t26 -36.5t9.5 -47.5q-1 -52 -36.5 -86t-87.5 -36q-25 0 -47.5 8t-39 23.5t-25.5 37t-9 47.5z" />
<glyph unicode="&#xcc;" d="M324 1456h841l-35 -199h-305l-184 -1059h306l-35 -198h-841l35 198h298l184 1059h-299zM819 1553h-172l-209 273h252z" />
<glyph unicode="&#xcd;" d="M324 1456h841l-35 -199h-305l-184 -1059h306l-35 -198h-841l35 198h298l184 1059h-299zM842 1823h282l-312 -273h-192z" />
<glyph unicode="&#xce;" d="M324 1456h841l-35 -199h-305l-184 -1059h306l-35 -198h-841l35 198h298l184 1059h-299zM1073 1625l-3 -29l-182 1l-120 136l-169 -135l-191 -1l3 30l293 239h134z" />
<glyph unicode="&#xcf;" d="M324 1456h841l-35 -199h-305l-184 -1059h306l-35 -198h-841l35 198h298l184 1059h-299zM407 1712q1 52 36.5 86t87.5 36q25 0 47.5 -8t39 -23.5t26 -37t9.5 -47.5t-10 -48t-27 -38t-39.5 -25t-47.5 -10q-25 0 -47.5 8t-39 23t-26 36.5t-9.5 47.5zM848 1711 q1 52 36.5 85.5t86.5 35.5q25 0 47.5 -8t39 -23t26 -36.5t9.5 -47.5q-1 -52 -36.5 -86t-87.5 -36q-25 0 -47.5 8t-39 23.5t-25.5 37t-9 47.5z" />
<glyph unicode="&#xd0;" horiz-adv-x="1232" d="M58 0l113 651h-196l30 170h195l111 635l333 -1q144 -3 250 -58t172 -147t91.5 -212.5t8.5 -255.5l-15 -110q-22 -142 -82.5 -265t-154 -213.5t-217.5 -142t-273 -51.5h-366zM623 651h-214l-79 -458l103 -1q106 0 188.5 38.5t142 104t96.5 152.5t52 185l17 113 q11 84 4 167.5t-40 150.5t-95.5 110.5t-162.5 47.5l-120 1l-76 -441h215z" />
<glyph unicode="&#xd1;" d="M955 0h-230l-289 1011l-176 -1011h-238l253 1456h232l286 -1008l178 1008h237zM1135 1856q-4 -45 -20.5 -88.5t-45 -77t-68 -54t-89.5 -20.5q-38 0 -70.5 15t-63.5 33t-63 32.5t-69 13.5q-23 -1 -41 -10t-31 -23.5t-21.5 -33.5t-14.5 -39l-123 28q5 45 22 88.5t45.5 78 t68.5 55t90 20.5q37 0 69.5 -15t64 -33t64 -32.5t69.5 -13.5q23 1 41 10t31.5 23.5t23 33t15.5 38.5z" />
<glyph unicode="&#xd2;" d="M1110 635q-13 -79 -37.5 -159t-61.5 -153.5t-87 -137t-114 -110t-141 -72t-168 -23.5q-87 2 -153.5 31t-115 77.5t-79.5 112t-47 135.5t-18 148.5t8 149.5l29 186q12 78 36.5 158t61 153.5t85.5 137.5t112 110.5t139 72.5t167 24q87 -2 154.5 -31t117 -77t81.5 -112 t48.5 -136.5t19 -149t-7.5 -150.5zM904 823q5 40 8.5 88.5t0 98t-15 96t-35 83t-61 59.5t-93.5 25q-59 2 -105.5 -17.5t-82.5 -54t-62.5 -80.5t-45.5 -97t-31.5 -103t-20.5 -99l-29 -189q-6 -39 -9.5 -87.5t-1 -98t13.5 -96.5t33.5 -84t59.5 -60.5t93 -25.5 q59 -2 106.5 17.5t84 54t64 81t47.5 97.5t32.5 103.5t20.5 99.5zM867 1574h-172l-209 273h252z" />
<glyph unicode="&#xd3;" d="M1110 635q-13 -79 -37.5 -159t-61.5 -153.5t-87 -137t-114 -110t-141 -72t-168 -23.5q-87 2 -153.5 31t-115 77.5t-79.5 112t-47 135.5t-18 148.5t8 149.5l29 186q12 78 36.5 158t61 153.5t85.5 137.5t112 110.5t139 72.5t167 24q87 -2 154.5 -31t117 -77t81.5 -112 t48.5 -136.5t19 -149t-7.5 -150.5zM904 823q5 40 8.5 88.5t0 98t-15 96t-35 83t-61 59.5t-93.5 25q-59 2 -105.5 -17.5t-82.5 -54t-62.5 -80.5t-45.5 -97t-31.5 -103t-20.5 -99l-29 -189q-6 -39 -9.5 -87.5t-1 -98t13.5 -96.5t33.5 -84t59.5 -60.5t93 -25.5 q59 -2 106.5 17.5t84 54t64 81t47.5 97.5t32.5 103.5t20.5 99.5zM890 1844h282l-312 -273h-192z" />
<glyph unicode="&#xd4;" d="M1110 635q-13 -79 -37.5 -159t-61.5 -153.5t-87 -137t-114 -110t-141 -72t-168 -23.5q-87 2 -153.5 31t-115 77.5t-79.5 112t-47 135.5t-18 148.5t8 149.5l29 186q12 78 36.5 158t61 153.5t85.5 137.5t112 110.5t139 72.5t167 24q87 -2 154.5 -31t117 -77t81.5 -112 t48.5 -136.5t19 -149t-7.5 -150.5zM904 823q5 40 8.5 88.5t0 98t-15 96t-35 83t-61 59.5t-93.5 25q-59 2 -105.5 -17.5t-82.5 -54t-62.5 -80.5t-45.5 -97t-31.5 -103t-20.5 -99l-29 -189q-6 -39 -9.5 -87.5t-1 -98t13.5 -96.5t33.5 -84t59.5 -60.5t93 -25.5 q59 -2 106.5 17.5t84 54t64 81t47.5 97.5t32.5 103.5t20.5 99.5zM1121 1646l-3 -29l-182 1l-120 136l-169 -135l-191 -1l3 30l293 239h134z" />
<glyph unicode="&#xd5;" d="M1110 635q-13 -79 -37.5 -159t-61.5 -153.5t-87 -137t-114 -110t-141 -72t-168 -23.5q-87 2 -153.5 31t-115 77.5t-79.5 112t-47 135.5t-18 148.5t8 149.5l29 186q12 78 36.5 158t61 153.5t85.5 137.5t112 110.5t139 72.5t167 24q87 -2 154.5 -31t117 -77t81.5 -112 t48.5 -136.5t19 -149t-7.5 -150.5zM904 823q5 40 8.5 88.5t0 98t-15 96t-35 83t-61 59.5t-93.5 25q-59 2 -105.5 -17.5t-82.5 -54t-62.5 -80.5t-45.5 -97t-31.5 -103t-20.5 -99l-29 -189q-6 -39 -9.5 -87.5t-1 -98t13.5 -96.5t33.5 -84t59.5 -60.5t93 -25.5 q59 -2 106.5 17.5t84 54t64 81t47.5 97.5t32.5 103.5t20.5 99.5zM1164 1877q-4 -45 -20.5 -88.5t-45 -77t-68 -54t-89.5 -20.5q-38 0 -70.5 15t-63.5 33t-63 32.5t-69 13.5q-23 -1 -41 -10t-31 -23.5t-21.5 -33.5t-14.5 -39l-123 28q5 45 22 88.5t45.5 78t68.5 55t90 20.5 q37 0 69.5 -15t64 -33t64 -32.5t69.5 -13.5q23 1 41 10t31.5 23.5t23 33t15.5 38.5z" />
<glyph unicode="&#xd6;" d="M1110 635q-13 -79 -37.5 -159t-61.5 -153.5t-87 -137t-114 -110t-141 -72t-168 -23.5q-87 2 -153.5 31t-115 77.5t-79.5 112t-47 135.5t-18 148.5t8 149.5l29 186q12 78 36.5 158t61 153.5t85.5 137.5t112 110.5t139 72.5t167 24q87 -2 154.5 -31t117 -77t81.5 -112 t48.5 -136.5t19 -149t-7.5 -150.5zM904 823q5 40 8.5 88.5t0 98t-15 96t-35 83t-61 59.5t-93.5 25q-59 2 -105.5 -17.5t-82.5 -54t-62.5 -80.5t-45.5 -97t-31.5 -103t-20.5 -99l-29 -189q-6 -39 -9.5 -87.5t-1 -98t13.5 -96.5t33.5 -84t59.5 -60.5t93 -25.5 q59 -2 106.5 17.5t84 54t64 81t47.5 97.5t32.5 103.5t20.5 99.5zM455 1733q1 52 36.5 86t87.5 36q25 0 47.5 -8t39 -23.5t26 -37t9.5 -47.5t-10 -48t-27 -38t-39.5 -25t-47.5 -10q-25 0 -47.5 8t-39 23t-26 36.5t-9.5 47.5zM896 1732q1 52 36.5 85.5t86.5 35.5q25 0 47.5 -8 t39 -23t26 -36.5t9.5 -47.5q-1 -52 -36.5 -86t-87.5 -36q-25 0 -47.5 8t-39 23.5t-25.5 37t-9 47.5z" />
<glyph unicode="&#xd7;" d="M122 372l364 324l-252 322l159 139l250 -321l363 321l125 -157l-364 -323l252 -323l-159 -139l-251 321l-362 -321z" />
<glyph unicode="&#xd8;" d="M1108 635q-13 -79 -37.5 -159t-61.5 -153.5t-87.5 -137t-113.5 -110t-140.5 -72t-168.5 -23.5q-86 2 -151.5 29.5t-113.5 75.5l-132 -180h-176l222 302q-23 47 -37 99.5t-20 107t-5.5 110.5t8.5 110l29 186q12 78 36.5 158t61 153.5t85.5 137.5t112 110.5t139 72.5 t167 24q89 -2 156.5 -32t117.5 -80l113 154h177l-204 -278q22 -47 35.5 -98.5t20 -105.5t5.5 -108.5t-8 -107.5zM329 633q-6 -42 -9.5 -91.5t-0.5 -101.5l545 742q-23 39 -61.5 64t-96.5 27q-59 2 -105.5 -17.5t-82.5 -54t-62.5 -80.5t-45.5 -97t-31.5 -103t-20.5 -99z M902 823q5 39 8.5 86.5t0.5 95.5l-545 -740q23 -37 59.5 -59.5t92.5 -24.5q59 -2 106.5 17.5t84 54t64 81t47.5 97.5t32.5 103.5t20.5 99.5z" />
<glyph unicode="&#xd9;" d="M1213 1456l-165 -973q-16 -107 -61 -199.5t-115.5 -161t-164 -106.5t-206.5 -36q-105 2 -183.5 43.5t-128.5 110t-71 158t-10 188.5l168 976h230l-164 -976q-6 -50 -1.5 -103t24 -97t57.5 -73t99 -31q66 -3 116.5 23t86.5 69.5t58.5 99.5t31.5 114l168 974h231zM880 1545 h-172l-209 273h252z" />
<glyph unicode="&#xda;" d="M1213 1456l-165 -973q-16 -107 -61 -199.5t-115.5 -161t-164 -106.5t-206.5 -36q-105 2 -183.5 43.5t-128.5 110t-71 158t-10 188.5l168 976h230l-164 -976q-6 -50 -1.5 -103t24 -97t57.5 -73t99 -31q66 -3 116.5 23t86.5 69.5t58.5 99.5t31.5 114l168 974h231zM903 1815 h282l-312 -273h-192z" />
<glyph unicode="&#xdb;" d="M1213 1456l-165 -973q-16 -107 -61 -199.5t-115.5 -161t-164 -106.5t-206.5 -36q-105 2 -183.5 43.5t-128.5 110t-71 158t-10 188.5l168 976h230l-164 -976q-6 -50 -1.5 -103t24 -97t57.5 -73t99 -31q66 -3 116.5 23t86.5 69.5t58.5 99.5t31.5 114l168 974h231z M1134 1617l-3 -29l-182 1l-120 136l-169 -135l-191 -1l3 30l293 239h134z" />
<glyph unicode="&#xdc;" d="M1213 1456l-165 -973q-16 -107 -61 -199.5t-115.5 -161t-164 -106.5t-206.5 -36q-105 2 -183.5 43.5t-128.5 110t-71 158t-10 188.5l168 976h230l-164 -976q-6 -50 -1.5 -103t24 -97t57.5 -73t99 -31q66 -3 116.5 23t86.5 69.5t58.5 99.5t31.5 114l168 974h231zM468 1704 q1 52 36.5 86t87.5 36q25 0 47.5 -8t39 -23.5t26 -37t9.5 -47.5t-10 -48t-27 -38t-39.5 -25t-47.5 -10q-25 0 -47.5 8t-39 23t-26 36.5t-9.5 47.5zM909 1703q1 52 36.5 85.5t86.5 35.5q25 0 47.5 -8t39 -23t26 -36.5t9.5 -47.5q-1 -52 -36.5 -86t-87.5 -36q-25 0 -47.5 8 t-39 23.5t-25.5 37t-9 47.5z" />
<glyph unicode="&#xdd;" d="M620 762l415 694h271l-610 -945l-90 -511h-228l93 541l-274 915h251zM880 1823h282l-312 -273h-192z" />
<glyph unicode="&#xde;" d="M527 1456l-49 -281l226 -1q96 -3 179 -32t142.5 -83t90.5 -133t22 -181q-10 -112 -59.5 -195.5t-126 -139t-173.5 -83.5t-201 -28l-251 1l-53 -300h-234l253 1456h234zM445 983l-86 -491l228 -2q59 0 113 16.5t96.5 49t70.5 79.5t36 109q7 54 -4.5 97t-39 73.5t-69 48 t-94.5 19.5z" />
<glyph unicode="&#xdf;" d="M286 0h-233l185 1079q14 98 51.5 186.5t99 155.5t145.5 105t191 35q76 -2 138.5 -27t105.5 -70t64 -108t15 -141q-5 -60 -29 -108.5t-53.5 -94t-56 -92t-36.5 -102.5q-7 -42 5 -80.5t34 -76t49.5 -74t51 -75.5t38.5 -80.5t12 -88.5q-5 -86 -37.5 -154.5t-86 -116 t-125.5 -72t-157 -23.5q-71 1 -145 14.5t-137 50.5l67 194q46 -31 101 -50t112 -17q74 1 120.5 47t57.5 118q6 44 -7 83.5t-36 76t-51 72.5t-51.5 74.5t-38 81t-9.5 92.5q3 38 16 71t31.5 63.5t39 59.5t39 59.5t32.5 63t18 69.5q3 29 -1.5 59t-18.5 54.5t-37 40.5t-57 18 q-58 3 -99.5 -25.5t-69 -73t-43 -97t-22.5 -98.5z" />
<glyph unicode="&#xe0;" d="M726 0q-8 26 -9 52t0 53q-66 -59 -143.5 -92.5t-167.5 -31.5q-68 1 -129 23t-106 62.5t-70 98t-21 130.5q4 71 28.5 126t63.5 95.5t90.5 68.5t109.5 45.5t119.5 24.5t122.5 7l177 -1l12 73q6 44 -4.5 78.5t-34.5 58t-59 36t-78 13.5q-38 1 -72 -7.5t-62 -27t-47 -46.5 t-27 -67l-233 -1q7 86 52 149t112 104t147 60.5t157 18.5q84 -2 157.5 -26.5t126.5 -71.5t80.5 -116t18.5 -159l-79 -483q-9 -57 -12 -115t15 -114l-2 -18h-233zM464 172q80 -2 150 34t119 99l37 204l-135 1q-49 0 -102 -8t-99 -28.5t-78 -57.5t-39 -95q-5 -37 4.5 -64.5 t29.5 -46t49 -28t64 -10.5zM793 1231h-172l-209 273h252z" />
<glyph unicode="&#xe1;" d="M726 0q-8 26 -9 52t0 53q-66 -59 -143.5 -92.5t-167.5 -31.5q-68 1 -129 23t-106 62.5t-70 98t-21 130.5q4 71 28.5 126t63.5 95.5t90.5 68.5t109.5 45.5t119.5 24.5t122.5 7l177 -1l12 73q6 44 -4.5 78.5t-34.5 58t-59 36t-78 13.5q-38 1 -72 -7.5t-62 -27t-47 -46.5 t-27 -67l-233 -1q7 86 52 149t112 104t147 60.5t157 18.5q84 -2 157.5 -26.5t126.5 -71.5t80.5 -116t18.5 -159l-79 -483q-9 -57 -12 -115t15 -114l-2 -18h-233zM464 172q80 -2 150 34t119 99l37 204l-135 1q-49 0 -102 -8t-99 -28.5t-78 -57.5t-39 -95q-5 -37 4.5 -64.5 t29.5 -46t49 -28t64 -10.5zM816 1501h282l-312 -273h-192z" />
<glyph unicode="&#xe2;" d="M726 0q-8 26 -9 52t0 53q-66 -59 -143.5 -92.5t-167.5 -31.5q-68 1 -129 23t-106 62.5t-70 98t-21 130.5q4 71 28.5 126t63.5 95.5t90.5 68.5t109.5 45.5t119.5 24.5t122.5 7l177 -1l12 73q6 44 -4.5 78.5t-34.5 58t-59 36t-78 13.5q-38 1 -72 -7.5t-62 -27t-47 -46.5 t-27 -67l-233 -1q7 86 52 149t112 104t147 60.5t157 18.5q84 -2 157.5 -26.5t126.5 -71.5t80.5 -116t18.5 -159l-79 -483q-9 -57 -12 -115t15 -114l-2 -18h-233zM464 172q80 -2 150 34t119 99l37 204l-135 1q-49 0 -102 -8t-99 -28.5t-78 -57.5t-39 -95q-5 -37 4.5 -64.5 t29.5 -46t49 -28t64 -10.5zM1047 1303l-3 -29l-182 1l-120 136l-169 -135l-191 -1l3 30l293 239h134z" />
<glyph unicode="&#xe3;" d="M726 0q-8 26 -9 52t0 53q-66 -59 -143.5 -92.5t-167.5 -31.5q-68 1 -129 23t-106 62.5t-70 98t-21 130.5q4 71 28.5 126t63.5 95.5t90.5 68.5t109.5 45.5t119.5 24.5t122.5 7l177 -1l12 73q6 44 -4.5 78.5t-34.5 58t-59 36t-78 13.5q-38 1 -72 -7.5t-62 -27t-47 -46.5 t-27 -67l-233 -1q7 86 52 149t112 104t147 60.5t157 18.5q84 -2 157.5 -26.5t126.5 -71.5t80.5 -116t18.5 -159l-79 -483q-9 -57 -12 -115t15 -114l-2 -18h-233zM464 172q80 -2 150 34t119 99l37 204l-135 1q-49 0 -102 -8t-99 -28.5t-78 -57.5t-39 -95q-5 -37 4.5 -64.5 t29.5 -46t49 -28t64 -10.5zM1090 1534q-4 -45 -20.5 -88.5t-45 -77t-68 -54t-89.5 -20.5q-38 0 -70.5 15t-63.5 33t-63 32.5t-69 13.5q-23 -1 -41 -10t-31 -23.5t-21.5 -33.5t-14.5 -39l-123 28q5 45 22 88.5t45.5 78t68.5 55t90 20.5q37 0 69.5 -15t64 -33t64 -32.5 t69.5 -13.5q23 1 41 10t31.5 23.5t23 33t15.5 38.5z" />
<glyph unicode="&#xe4;" d="M726 0q-8 26 -9 52t0 53q-66 -59 -143.5 -92.5t-167.5 -31.5q-68 1 -129 23t-106 62.5t-70 98t-21 130.5q4 71 28.5 126t63.5 95.5t90.5 68.5t109.5 45.5t119.5 24.5t122.5 7l177 -1l12 73q6 44 -4.5 78.5t-34.5 58t-59 36t-78 13.5q-38 1 -72 -7.5t-62 -27t-47 -46.5 t-27 -67l-233 -1q7 86 52 149t112 104t147 60.5t157 18.5q84 -2 157.5 -26.5t126.5 -71.5t80.5 -116t18.5 -159l-79 -483q-9 -57 -12 -115t15 -114l-2 -18h-233zM464 172q80 -2 150 34t119 99l37 204l-135 1q-49 0 -102 -8t-99 -28.5t-78 -57.5t-39 -95q-5 -37 4.5 -64.5 t29.5 -46t49 -28t64 -10.5zM382 1390q1 52 36.5 86t87.5 36q25 0 47.5 -8t39 -23.5t26 -37t9.5 -47.5t-10 -48t-27 -38t-39.5 -25t-47.5 -10q-25 0 -47.5 8t-39 23t-26 36.5t-9.5 47.5zM823 1389q1 52 36.5 85.5t86.5 35.5q25 0 47.5 -8t39 -23t26 -36.5t9.5 -47.5 q-1 -52 -36.5 -86t-87.5 -36q-25 0 -47.5 8t-39 23.5t-25.5 37t-9 47.5z" />
<glyph unicode="&#xe5;" d="M726 0q-8 26 -9 52t0 53q-66 -59 -143.5 -92.5t-167.5 -31.5q-68 1 -129 23t-106 62.5t-70 98t-21 130.5q4 71 28.5 126t63.5 95.5t90.5 68.5t109.5 45.5t119.5 24.5t122.5 7l177 -1l12 73q6 44 -4.5 78.5t-34.5 58t-59 36t-78 13.5q-38 1 -72 -7.5t-62 -27t-47 -46.5 t-27 -67l-233 -1q7 86 52 149t112 104t147 60.5t157 18.5q84 -2 157.5 -26.5t126.5 -71.5t80.5 -116t18.5 -159l-79 -483q-9 -57 -12 -115t15 -114l-2 -18h-233zM464 172q80 -2 150 34t119 99l37 204l-135 1q-49 0 -102 -8t-99 -28.5t-78 -57.5t-39 -95q-5 -37 4.5 -64.5 t29.5 -46t49 -28t64 -10.5zM528 1404q1 44 19.5 82t48.5 66t69.5 43.5t83.5 15.5q40 0 74.5 -15t59.5 -40.5t39 -60.5t13 -75q-1 -44 -19 -81.5t-47 -65t-68 -42.5t-82 -15q-40 0 -75.5 14t-61.5 39t-41 59.5t-13 75.5zM635 1407q-2 -19 3 -36.5t16.5 -31t27.5 -21.5t36 -8 q22 0 41 9t33.5 24t23.5 34t12 40q2 19 -2.5 36.5t-14.5 31.5t-25.5 22.5t-36.5 8.5q-22 0 -41.5 -9t-35 -24t-25.5 -35t-12 -41z" />
<glyph unicode="&#xe6;" d="M763 -19q-38 0 -75.5 7.5t-70.5 22.5t-61 39t-48 58q-51 -57 -113.5 -93t-142.5 -35q-67 1 -117.5 24.5t-84 64t-49 95.5t-11.5 119q6 97 46.5 165.5t105 112t147 63t170.5 18.5h29l24 133q3 21 3 44.5t-7 43.5t-22 33t-42 14q-29 1 -50 -10t-35.5 -29t-23 -41t-12.5 -48 l-224 9q7 73 35.5 131.5t75 99t108.5 62t135 20.5q62 -2 120 -21t100 -67q52 42 109.5 64.5t124.5 20.5q80 -2 135 -36t87 -88t43 -122.5t4 -139.5l-38 -243h-461l-12 -86q-5 -45 0 -83.5t23 -67t50.5 -45t82.5 -17.5q54 -1 100 15.5t94 39.5l34 -170q-29 -23 -64 -37.5 t-72.5 -23.5t-75.5 -12.5t-74 -3.5zM698 641l251 1l17 123q2 25 -0.5 50.5t-13 46.5t-29.5 34.5t-49 14.5q-43 1 -72 -18t-47.5 -49.5t-29 -67t-16.5 -70.5zM314 161q29 0 54 14t48 30l54 273h-18q-43 -2 -82.5 -16.5t-70.5 -40.5t-51.5 -62t-26.5 -80q-6 -49 17.5 -83.5 t75.5 -34.5z" />
<glyph unicode="&#xe7;" d="M534 169q43 -1 84.5 11.5t75 37t57 59t31.5 78.5l220 1q-7 -88 -52 -158.5t-113 -119.5t-151 -75t-165 -24q-116 2 -198 47.5t-132.5 120t-69.5 171t-8 201.5l4 37q13 112 58 212.5t117.5 175.5t170.5 118t217 40q89 -2 162.5 -32.5t125 -84t78.5 -127.5t22 -164l-219 1 q3 44 -9 82.5t-36 67.5t-60 46t-82 19q-75 3 -130 -28.5t-93 -82.5t-60 -115t-31 -128l-4 -36q-4 -37 -4.5 -77t4.5 -78.5t17.5 -73.5t35 -61.5t56 -43t81.5 -17.5zM588 5l-20 -57q62 -14 93 -57t29 -106q-2 -69 -35.5 -113.5t-84.5 -70t-111.5 -36t-116.5 -11.5l7 137 q24 1 49.5 6t47 15.5t37 28.5t20.5 47q4 27 -8.5 42t-33 22.5t-44.5 10t-43 4.5l45 136z" />
<glyph unicode="&#xe8;" d="M547 -20q-110 2 -197 43.5t-144.5 111.5t-84.5 163.5t-17 200.5l5 42q8 73 32 144t61.5 134t87.5 115.5t111.5 90.5t132 58.5t149.5 18.5q114 -3 193.5 -48t127 -119t64 -169.5t3.5 -198.5l-15 -101h-722q-5 -58 8.5 -110.5t44 -93t77 -65t108.5 -25.5q88 -3 165.5 33 t137.5 99l117 -122q-37 -53 -87.5 -91.5t-109.5 -63.5t-122.5 -36.5t-125.5 -10.5zM665 910q-60 2 -108 -21t-85.5 -61t-65.5 -87t-47 -99l492 -1l4 21q7 49 -2 93t-34 78t-64 54.5t-90 22.5zM793 1232h-172l-209 273h252z" />
<glyph unicode="&#xe9;" d="M547 -20q-110 2 -197 43.5t-144.5 111.5t-84.5 163.5t-17 200.5l5 42q8 73 32 144t61.5 134t87.5 115.5t111.5 90.5t132 58.5t149.5 18.5q114 -3 193.5 -48t127 -119t64 -169.5t3.5 -198.5l-15 -101h-722q-5 -58 8.5 -110.5t44 -93t77 -65t108.5 -25.5q88 -3 165.5 33 t137.5 99l117 -122q-37 -53 -87.5 -91.5t-109.5 -63.5t-122.5 -36.5t-125.5 -10.5zM665 910q-60 2 -108 -21t-85.5 -61t-65.5 -87t-47 -99l492 -1l4 21q7 49 -2 93t-34 78t-64 54.5t-90 22.5zM816 1502h282l-312 -273h-192z" />
<glyph unicode="&#xea;" d="M547 -20q-110 2 -197 43.5t-144.5 111.5t-84.5 163.5t-17 200.5l5 42q8 73 32 144t61.5 134t87.5 115.5t111.5 90.5t132 58.5t149.5 18.5q114 -3 193.5 -48t127 -119t64 -169.5t3.5 -198.5l-15 -101h-722q-5 -58 8.5 -110.5t44 -93t77 -65t108.5 -25.5q88 -3 165.5 33 t137.5 99l117 -122q-37 -53 -87.5 -91.5t-109.5 -63.5t-122.5 -36.5t-125.5 -10.5zM665 910q-60 2 -108 -21t-85.5 -61t-65.5 -87t-47 -99l492 -1l4 21q7 49 -2 93t-34 78t-64 54.5t-90 22.5zM1047 1304l-3 -29l-182 1l-120 136l-169 -135l-191 -1l3 30l293 239h134z" />
<glyph unicode="&#xeb;" d="M547 -20q-110 2 -197 43.5t-144.5 111.5t-84.5 163.5t-17 200.5l5 42q8 73 32 144t61.5 134t87.5 115.5t111.5 90.5t132 58.5t149.5 18.5q114 -3 193.5 -48t127 -119t64 -169.5t3.5 -198.5l-15 -101h-722q-5 -58 8.5 -110.5t44 -93t77 -65t108.5 -25.5q88 -3 165.5 33 t137.5 99l117 -122q-37 -53 -87.5 -91.5t-109.5 -63.5t-122.5 -36.5t-125.5 -10.5zM665 910q-60 2 -108 -21t-85.5 -61t-65.5 -87t-47 -99l492 -1l4 21q7 49 -2 93t-34 78t-64 54.5t-90 22.5zM382 1391q1 52 36.5 86t87.5 36q25 0 47.5 -8t39 -23.5t26 -37t9.5 -47.5 t-10 -48t-27 -38t-39.5 -25t-47.5 -10q-25 0 -47.5 8t-39 23t-26 36.5t-9.5 47.5zM823 1390q1 52 36.5 85.5t86.5 35.5q25 0 47.5 -8t39 -23t26 -36.5t9.5 -47.5q-1 -52 -36.5 -86t-87.5 -36q-25 0 -47.5 8t-39 23.5t-25.5 37t-9 47.5z" />
<glyph unicode="&#xec;" d="M276 1082h569l-153 -884h320l-35 -198h-889l35 198h333l119 685h-334zM844 1205h-172l-209 273h252z" />
<glyph unicode="&#xed;" d="M276 1082h569l-153 -884h320l-35 -198h-889l35 198h333l119 685h-334zM867 1476h282l-312 -273h-192z" />
<glyph unicode="&#xee;" d="M276 1082h569l-153 -884h320l-35 -198h-889l35 198h333l119 685h-334zM1098 1277l-3 -29l-182 1l-120 136l-169 -135l-191 -1l3 30l293 239h134z" />
<glyph unicode="&#xef;" d="M276 1082h569l-153 -884h320l-35 -198h-889l35 198h333l119 685h-334zM432 1364q1 52 36.5 86t87.5 36q25 0 47.5 -8t39 -23.5t26 -37t9.5 -47.5t-10 -48t-27 -38t-39.5 -25t-47.5 -10q-25 0 -47.5 8t-39 23t-26 36.5t-9.5 47.5zM873 1363q1 52 36.5 85.5t86.5 35.5 q25 0 47.5 -8t39 -23t26 -36.5t9.5 -47.5q-1 -52 -36.5 -86t-87.5 -36q-25 0 -47.5 8t-39 23.5t-25.5 37t-9 47.5z" />
<glyph unicode="&#xf0;" d="M967 1273q74 -152 95.5 -308.5t-0.5 -323.5l-9 -64q-11 -77 -35.5 -152t-63 -142.5t-89.5 -124t-114 -97t-137.5 -62.5t-159.5 -20q-101 3 -183 41t-138.5 102.5t-83.5 151t-18 186.5q10 109 55 204t117 164.5t167.5 108.5t208.5 36q73 -2 138.5 -28.5t119.5 -74.5 q0 78 -19.5 150t-61.5 138l-273 -144l-61 118l239 124q-29 23 -60.5 39t-66.5 29l93 191q71 -21 134 -56.5t118 -86.5l233 123l61 -119zM832 677q-19 33 -49 54.5t-65.5 34.5t-73.5 18.5t-73 5.5q-66 0 -120 -29t-93 -76t-63 -106t-31 -119q-6 -54 3.5 -105.5t36 -92t69 -66 t101.5 -27.5q80 -3 139.5 33.5t101.5 94.5t66.5 129t34.5 138l12 80z" />
<glyph unicode="&#xf1;" d="M443 1083l-20 -152q66 78 150.5 125.5t189.5 45.5q93 -2 155 -37.5t97.5 -94t47 -135t2.5 -159.5l-113 -676h-233l112 673q6 50 1 92t-24 73t-54 49t-90 19q-39 1 -74 -8t-65.5 -26.5t-58 -41.5t-51.5 -53l-135 -777h-234l188 1082zM1086 1534q-4 -45 -20.5 -88.5 t-45 -77t-68 -54t-89.5 -20.5q-38 0 -70.5 15t-63.5 33t-63 32.5t-69 13.5q-23 -1 -41 -10t-31 -23.5t-21.5 -33.5t-14.5 -39l-123 28q5 45 22 88.5t45.5 78t68.5 55t90 20.5q37 0 69.5 -15t64 -33t64 -32.5t69.5 -13.5q23 1 41 10t31.5 23.5t23 33t15.5 38.5z" />
<glyph unicode="&#xf2;" d="M99 544q14 112 58.5 214.5t117 179.5t171 122t219.5 42q115 -3 197.5 -49.5t133 -122.5t70 -173.5t8.5 -202.5l-2 -22q-14 -112 -59 -213.5t-117.5 -178t-171 -120.5t-218.5 -41q-114 3 -196.5 49t-133.5 121t-70.5 172t-8.5 202zM330 523q-4 -37 -4.5 -77t5.5 -79 t19 -74t36 -62t56.5 -44t80.5 -18q75 -3 130.5 30t93.5 86t60.5 119t30.5 129l2 20q6 55 3 117t-22.5 114.5t-61 88t-111.5 37.5q-75 2 -131 -31t-94 -86.5t-60.5 -119.5t-30.5 -129zM800 1231h-172l-209 273h252z" />
<glyph unicode="&#xf3;" d="M99 544q14 112 58.5 214.5t117 179.5t171 122t219.5 42q115 -3 197.5 -49.5t133 -122.5t70 -173.5t8.5 -202.5l-2 -22q-14 -112 -59 -213.5t-117.5 -178t-171 -120.5t-218.5 -41q-114 3 -196.5 49t-133.5 121t-70.5 172t-8.5 202zM330 523q-4 -37 -4.5 -77t5.5 -79 t19 -74t36 -62t56.5 -44t80.5 -18q75 -3 130.5 30t93.5 86t60.5 119t30.5 129l2 20q6 55 3 117t-22.5 114.5t-61 88t-111.5 37.5q-75 2 -131 -31t-94 -86.5t-60.5 -119.5t-30.5 -129zM823 1501h282l-312 -273h-192z" />
<glyph unicode="&#xf4;" d="M99 544q14 112 58.5 214.5t117 179.5t171 122t219.5 42q115 -3 197.5 -49.5t133 -122.5t70 -173.5t8.5 -202.5l-2 -22q-14 -112 -59 -213.5t-117.5 -178t-171 -120.5t-218.5 -41q-114 3 -196.5 49t-133.5 121t-70.5 172t-8.5 202zM330 523q-4 -37 -4.5 -77t5.5 -79 t19 -74t36 -62t56.5 -44t80.5 -18q75 -3 130.5 30t93.5 86t60.5 119t30.5 129l2 20q6 55 3 117t-22.5 114.5t-61 88t-111.5 37.5q-75 2 -131 -31t-94 -86.5t-60.5 -119.5t-30.5 -129zM1054 1303l-3 -29l-182 1l-120 136l-169 -135l-191 -1l3 30l293 239h134z" />
<glyph unicode="&#xf5;" d="M99 544q14 112 58.5 214.5t117 179.5t171 122t219.5 42q115 -3 197.5 -49.5t133 -122.5t70 -173.5t8.5 -202.5l-2 -22q-14 -112 -59 -213.5t-117.5 -178t-171 -120.5t-218.5 -41q-114 3 -196.5 49t-133.5 121t-70.5 172t-8.5 202zM330 523q-4 -37 -4.5 -77t5.5 -79 t19 -74t36 -62t56.5 -44t80.5 -18q75 -3 130.5 30t93.5 86t60.5 119t30.5 129l2 20q6 55 3 117t-22.5 114.5t-61 88t-111.5 37.5q-75 2 -131 -31t-94 -86.5t-60.5 -119.5t-30.5 -129zM1097 1534q-4 -45 -20.5 -88.5t-45 -77t-68 -54t-89.5 -20.5q-38 0 -70.5 15t-63.5 33 t-63 32.5t-69 13.5q-23 -1 -41 -10t-31 -23.5t-21.5 -33.5t-14.5 -39l-123 28q5 45 22 88.5t45.5 78t68.5 55t90 20.5q37 0 69.5 -15t64 -33t64 -32.5t69.5 -13.5q23 1 41 10t31.5 23.5t23 33t15.5 38.5z" />
<glyph unicode="&#xf6;" d="M99 544q14 112 58.5 214.5t117 179.5t171 122t219.5 42q115 -3 197.5 -49.5t133 -122.5t70 -173.5t8.5 -202.5l-2 -22q-14 -112 -59 -213.5t-117.5 -178t-171 -120.5t-218.5 -41q-114 3 -196.5 49t-133.5 121t-70.5 172t-8.5 202zM330 523q-4 -37 -4.5 -77t5.5 -79 t19 -74t36 -62t56.5 -44t80.5 -18q75 -3 130.5 30t93.5 86t60.5 119t30.5 129l2 20q6 55 3 117t-22.5 114.5t-61 88t-111.5 37.5q-75 2 -131 -31t-94 -86.5t-60.5 -119.5t-30.5 -129zM388 1390q1 52 36.5 86t87.5 36q25 0 47.5 -8t39 -23.5t26 -37t9.5 -47.5t-10 -48 t-27 -38t-39.5 -25t-47.5 -10q-25 0 -47.5 8t-39 23t-26 36.5t-9.5 47.5zM829 1389q1 52 36.5 85.5t86.5 35.5q25 0 47.5 -8t39 -23t26 -36.5t9.5 -47.5q-1 -52 -36.5 -86t-87.5 -36q-25 0 -47.5 8t-39 23.5t-25.5 37t-9 47.5z" />
<glyph unicode="&#xf7;" d="M1086 583h-982l37 211h982zM553 1090q0 28 10 52t27.5 41t41.5 27t52 11q27 1 51 -8t41.5 -25t27.5 -39t10 -51t-10 -51.5t-27.5 -41t-41.5 -27t-52 -10.5q-27 -1 -51 7.5t-41.5 25t-27.5 39t-10 50.5zM410 275q0 28 10 52t27.5 41.5t41.5 27.5t52 11q27 1 51 -8 t41.5 -25.5t27.5 -39.5t10 -51t-10 -52t-27.5 -41t-41.5 -27t-52 -10q-27 -1 -51 7.5t-41.5 25t-27.5 39t-10 50.5z" />
<glyph unicode="&#xf8;" d="M99 544q14 112 58.5 214.5t117 179.5t171 122t219.5 42q55 -2 102.5 -14t87.5 -32l102 156h152l-152 -234q36 -39 61 -87t39.5 -102.5t18.5 -114t-2 -120.5l-2 -22q-14 -112 -59 -213.5t-117.5 -178t-171 -120.5t-218.5 -41q-98 3 -175 37l-100 -154h-152l147 226 q-39 39 -66.5 87.5t-43.5 104.5t-21 117.5t2 125.5zM330 523q-7 -58 -3.5 -122t26.5 -117l390 599q-19 12 -42.5 19t-52.5 8q-75 2 -131 -31t-94 -86.5t-60.5 -119.5t-30.5 -129zM840 553q5 53 3 111t-19 110l-382 -587q35 -17 81 -18q75 -3 130.5 30t93.5 86t60.5 119 t30.5 129z" />
<glyph unicode="&#xf9;" d="M754 148q-30 -38 -65.5 -69.5t-75.5 -54t-85 -34.5t-95 -11q-98 2 -160.5 43t-96 106.5t-42 147.5t0.5 166l106 640h234l-107 -643q-5 -45 -6 -91.5t11 -84t42 -62t87 -25.5q85 -3 149.5 32.5t111.5 104.5l134 769h234l-187 -1082h-210zM798 1210h-172l-209 273h252z" />
<glyph unicode="&#xfa;" d="M754 148q-30 -38 -65.5 -69.5t-75.5 -54t-85 -34.5t-95 -11q-98 2 -160.5 43t-96 106.5t-42 147.5t0.5 166l106 640h234l-107 -643q-5 -45 -6 -91.5t11 -84t42 -62t87 -25.5q85 -3 149.5 32.5t111.5 104.5l134 769h234l-187 -1082h-210zM821 1480h282l-312 -273h-192z " />
<glyph unicode="&#xfb;" d="M754 148q-30 -38 -65.5 -69.5t-75.5 -54t-85 -34.5t-95 -11q-98 2 -160.5 43t-96 106.5t-42 147.5t0.5 166l106 640h234l-107 -643q-5 -45 -6 -91.5t11 -84t42 -62t87 -25.5q85 -3 149.5 32.5t111.5 104.5l134 769h234l-187 -1082h-210zM1052 1282l-3 -29l-182 1 l-120 136l-169 -135l-191 -1l3 30l293 239h134z" />
<glyph unicode="&#xfc;" d="M754 148q-30 -38 -65.5 -69.5t-75.5 -54t-85 -34.5t-95 -11q-98 2 -160.5 43t-96 106.5t-42 147.5t0.5 166l106 640h234l-107 -643q-5 -45 -6 -91.5t11 -84t42 -62t87 -25.5q85 -3 149.5 32.5t111.5 104.5l134 769h234l-187 -1082h-210zM386 1369q1 52 36.5 86t87.5 36 q25 0 47.5 -8t39 -23.5t26 -37t9.5 -47.5t-10 -48t-27 -38t-39.5 -25t-47.5 -10q-25 0 -47.5 8t-39 23t-26 36.5t-9.5 47.5zM827 1368q1 52 36.5 85.5t86.5 35.5q25 0 47.5 -8t39 -23t26 -36.5t9.5 -47.5q-1 -52 -36.5 -86t-87.5 -36q-25 0 -47.5 8t-39 23.5t-25.5 37 t-9 47.5z" />
<glyph unicode="&#xfd;" d="M536 421l15 -115l429 776h268l-746 -1246q-32 -55 -71 -105t-86.5 -88t-105 -60t-125.5 -22q-33 1 -65.5 6.5t-64.5 13.5l52 185q22 -2 44 -4.5t43 -1.5q33 1 60.5 16.5t50 38.5t41.5 50.5t36 51.5l99 146l-265 1019h248zM841 1480h282l-312 -273h-192z" />
<glyph unicode="&#xfe;" d="M1058 536q-8 -66 -26 -133.5t-47 -130t-68.5 -117t-91 -94t-115 -62t-140.5 -20.5q-78 2 -146.5 30.5t-119.5 88.5l-96 -514h-233l341 1967h233l-108 -570q60 60 131.5 91.5t157.5 29.5q74 -2 129 -26t93.5 -64.5t62.5 -94t36.5 -113.5t13.5 -123.5t-5 -123.5zM827 558 q4 35 4.5 73.5t-4 77t-16 73.5t-32.5 62t-53 43.5t-77 18.5q-75 2 -132 -33t-101 -92l-85 -483q25 -63 72.5 -94.5t115.5 -33.5q75 -2 129 31.5t90.5 87t57 119.5t28.5 129z" />
<glyph unicode="&#xff;" d="M536 421l15 -115l429 776h268l-746 -1246q-32 -55 -71 -105t-86.5 -88t-105 -60t-125.5 -22q-33 1 -65.5 6.5t-64.5 13.5l52 185q22 -2 44 -4.5t43 -1.5q33 1 60.5 16.5t50 38.5t41.5 50.5t36 51.5l99 146l-265 1019h248zM406 1369q1 52 36.5 86t87.5 36q25 0 47.5 -8 t39 -23.5t26 -37t9.5 -47.5t-10 -48t-27 -38t-39.5 -25t-47.5 -10q-25 0 -47.5 8t-39 23t-26 36.5t-9.5 47.5zM847 1368q1 52 36.5 85.5t86.5 35.5q25 0 47.5 -8t39 -23t26 -36.5t9.5 -47.5q-1 -52 -36.5 -86t-87.5 -36q-25 0 -47.5 8t-39 23.5t-25.5 37t-9 47.5z" />
<glyph unicode="&#x100;" d="M787 338h-440l-156 -338h-249l712 1456h206l197 -1456h-234zM442 543h322l-60 568zM1146 1625h-706l26 157h705z" />
<glyph unicode="&#x101;" d="M726 0q-8 26 -9 52t0 53q-66 -59 -143.5 -92.5t-167.5 -31.5q-68 1 -129 23t-106 62.5t-70 98t-21 130.5q4 71 28.5 126t63.5 95.5t90.5 68.5t109.5 45.5t119.5 24.5t122.5 7l177 -1l12 73q6 44 -4.5 78.5t-34.5 58t-59 36t-78 13.5q-38 1 -72 -7.5t-62 -27t-47 -46.5 t-27 -67l-233 -1q7 86 52 149t112 104t147 60.5t157 18.5q84 -2 157.5 -26.5t126.5 -71.5t80.5 -116t18.5 -159l-79 -483q-9 -57 -12 -115t15 -114l-2 -18h-233zM464 172q80 -2 150 34t119 99l37 204l-135 1q-49 0 -102 -8t-99 -28.5t-78 -57.5t-39 -95q-5 -37 4.5 -64.5 t29.5 -46t49 -28t64 -10.5zM1070 1303h-706l26 157h705z" />
<glyph unicode="&#x102;" d="M787 338h-440l-156 -338h-249l712 1456h206l197 -1456h-234zM442 543h322l-60 568zM1133 1865q-5 -68 -32.5 -120.5t-71.5 -89t-102.5 -55t-124.5 -17.5q-64 1 -117 21t-91.5 56.5t-59 88t-19.5 116.5l175 -1q-2 -60 24 -99.5t92 -40.5q33 0 59 10t45 28.5t31.5 44.5 t18.5 56z" />
<glyph unicode="&#x103;" d="M726 0q-8 26 -9 52t0 53q-66 -59 -143.5 -92.5t-167.5 -31.5q-68 1 -129 23t-106 62.5t-70 98t-21 130.5q4 71 28.5 126t63.5 95.5t90.5 68.5t109.5 45.5t119.5 24.5t122.5 7l177 -1l12 73q6 44 -4.5 78.5t-34.5 58t-59 36t-78 13.5q-38 1 -72 -7.5t-62 -27t-47 -46.5 t-27 -67l-233 -1q7 86 52 149t112 104t147 60.5t157 18.5q84 -2 157.5 -26.5t126.5 -71.5t80.5 -116t18.5 -159l-79 -483q-9 -57 -12 -115t15 -114l-2 -18h-233zM464 172q80 -2 150 34t119 99l37 204l-135 1q-49 0 -102 -8t-99 -28.5t-78 -57.5t-39 -95q-5 -37 4.5 -64.5 t29.5 -46t49 -28t64 -10.5zM1057 1543q-5 -68 -32.5 -120.5t-71.5 -89t-102.5 -55t-124.5 -17.5q-64 1 -117 21t-91.5 56.5t-59 88t-19.5 116.5l175 -1q-2 -60 24 -99.5t92 -40.5q33 0 59 10t45 28.5t31.5 44.5t18.5 56z" />
<glyph unicode="&#x104;" d="M996 0l6 -3q-31 -15 -62.5 -34t-57.5 -43.5t-44 -55.5t-22 -68q-4 -29 8 -45.5t43 -17.5q23 -1 45.5 6.5t44.5 15.5l28 -143q-40 -22 -84.5 -32t-89.5 -9q-43 0 -78 14t-60 39t-38 60t-11 78q1 45 18 84t44 72.5t62 61t72 49.5l-33 309h-440l-156 -338h-249l712 1456h206 l197 -1456h-61zM442 543h322l-60 568z" />
<glyph unicode="&#x105;" d="M905 0l6 -3q-31 -15 -62.5 -34t-57.5 -43.5t-44 -55.5t-22 -68q-4 -29 8 -45.5t43 -17.5q23 -1 45.5 6.5t44.5 15.5l28 -143q-40 -22 -84.5 -32t-89.5 -9q-43 0 -78 14t-60 39t-38 60t-11 78q1 43 17 81.5t42 71t59 59.5t69 49q-3 20 -3.5 40.5t0.5 41.5 q-66 -59 -143.5 -92.5t-167.5 -31.5q-68 1 -129 23t-106 62.5t-70 98t-21 130.5q4 71 28.5 126t63.5 95.5t90.5 68.5t109.5 45.5t119.5 24.5t122.5 7l177 -1l12 73q6 44 -4.5 78.5t-34.5 58t-59 36t-78 13.5q-38 1 -72 -7.5t-62 -27t-47 -46.5t-27 -67l-233 -1q7 86 52 149 t112 104t147 60.5t157 18.5q84 -2 157.5 -26.5t126.5 -71.5t80.5 -116t18.5 -159l-79 -483q-9 -57 -12 -115t15 -114l-2 -18h-54zM464 172q80 -2 150 34t119 99l37 204l-135 1q-49 0 -102 -8t-99 -28.5t-78 -57.5t-39 -95q-5 -37 4.5 -64.5t29.5 -46t49 -28t64 -10.5z" />
<glyph unicode="&#x106;" d="M1062 449q-18 -105 -65.5 -192.5t-119.5 -150t-165 -96.5t-201 -31q-88 2 -156 30t-117.5 75t-82 109.5t-49 134t-19 148.5t7.5 152l30 199q13 80 38 160t63 153t88.5 135.5t114.5 108t141.5 70.5t168.5 23q108 -2 187.5 -39.5t132.5 -102t80.5 -151t30.5 -187.5h-233 q-1 55 -11 106t-34 90t-65.5 63.5t-104.5 26.5q-61 2 -108.5 -17.5t-85 -53.5t-65 -80t-47.5 -97t-32.5 -104t-20.5 -102l-31 -202q-6 -42 -9.5 -91t-1 -99t13.5 -96.5t34.5 -83.5t61.5 -60t96 -25q65 -2 116 18.5t88.5 58t62.5 88t39 109.5zM938 1833h282l-312 -273h-192z " />
<glyph unicode="&#x107;" d="M534 169q43 -1 84.5 11.5t75 37t57 59t31.5 78.5l220 1q-7 -88 -52 -158.5t-113 -119.5t-151 -75t-165 -24q-116 2 -198 47.5t-132.5 120t-69.5 171t-8 201.5l4 37q13 112 58 212.5t117.5 175.5t170.5 118t217 40q89 -2 162.5 -32.5t125 -84t78.5 -127.5t22 -164l-219 1 q3 44 -9 82.5t-36 67.5t-60 46t-82 19q-75 3 -130 -28.5t-93 -82.5t-60 -115t-31 -128l-4 -36q-4 -37 -4.5 -77t4.5 -78.5t17.5 -73.5t35 -61.5t56 -43t81.5 -17.5zM841 1501h282l-312 -273h-192z" />
<glyph unicode="&#x108;" d="M1062 449q-18 -105 -65.5 -192.5t-119.5 -150t-165 -96.5t-201 -31q-88 2 -156 30t-117.5 75t-82 109.5t-49 134t-19 148.5t7.5 152l30 199q13 80 38 160t63 153t88.5 135.5t114.5 108t141.5 70.5t168.5 23q108 -2 187.5 -39.5t132.5 -102t80.5 -151t30.5 -187.5h-233 q-1 55 -11 106t-34 90t-65.5 63.5t-104.5 26.5q-61 2 -108.5 -17.5t-85 -53.5t-65 -80t-47.5 -97t-32.5 -104t-20.5 -102l-31 -202q-6 -42 -9.5 -91t-1 -99t13.5 -96.5t34.5 -83.5t61.5 -60t96 -25q65 -2 116 18.5t88.5 58t62.5 88t39 109.5zM1169 1635l-3 -29l-182 1 l-120 136l-169 -135l-191 -1l3 30l293 239h134z" />
<glyph unicode="&#x109;" d="M534 169q43 -1 84.5 11.5t75 37t57 59t31.5 78.5l220 1q-7 -88 -52 -158.5t-113 -119.5t-151 -75t-165 -24q-116 2 -198 47.5t-132.5 120t-69.5 171t-8 201.5l4 37q13 112 58 212.5t117.5 175.5t170.5 118t217 40q89 -2 162.5 -32.5t125 -84t78.5 -127.5t22 -164l-219 1 q3 44 -9 82.5t-36 67.5t-60 46t-82 19q-75 3 -130 -28.5t-93 -82.5t-60 -115t-31 -128l-4 -36q-4 -37 -4.5 -77t4.5 -78.5t17.5 -73.5t35 -61.5t56 -43t81.5 -17.5zM1072 1303l-3 -29l-182 1l-120 136l-169 -135l-191 -1l3 30l293 239h134z" />
<glyph unicode="&#x10a;" d="M1062 449q-18 -105 -65.5 -192.5t-119.5 -150t-165 -96.5t-201 -31q-88 2 -156 30t-117.5 75t-82 109.5t-49 134t-19 148.5t7.5 152l30 199q13 80 38 160t63 153t88.5 135.5t114.5 108t141.5 70.5t168.5 23q108 -2 187.5 -39.5t132.5 -102t80.5 -151t30.5 -187.5h-233 q-1 55 -11 106t-34 90t-65.5 63.5t-104.5 26.5q-61 2 -108.5 -17.5t-85 -53.5t-65 -80t-47.5 -97t-32.5 -104t-20.5 -102l-31 -202q-6 -42 -9.5 -91t-1 -99t13.5 -96.5t34.5 -83.5t61.5 -60t96 -25q65 -2 116 18.5t88.5 58t62.5 88t39 109.5zM718 1722q0 28 10 52.5t27.5 42 t41.5 27.5t53 11q28 1 52 -8t42 -25.5t27.5 -40t9.5 -51.5q0 -58 -37.5 -94.5t-94.5 -37.5q-28 -1 -52 8t-41.5 25.5t-27.5 39.5t-10 51z" />
<glyph unicode="&#x10b;" d="M534 169q43 -1 84.5 11.5t75 37t57 59t31.5 78.5l220 1q-7 -88 -52 -158.5t-113 -119.5t-151 -75t-165 -24q-116 2 -198 47.5t-132.5 120t-69.5 171t-8 201.5l4 37q13 112 58 212.5t117.5 175.5t170.5 118t217 40q89 -2 162.5 -32.5t125 -84t78.5 -127.5t22 -164l-219 1 q3 44 -9 82.5t-36 67.5t-60 46t-82 19q-75 3 -130 -28.5t-93 -82.5t-60 -115t-31 -128l-4 -36q-4 -37 -4.5 -77t4.5 -78.5t17.5 -73.5t35 -61.5t56 -43t81.5 -17.5zM621 1390q0 28 10 52.5t27.5 42t41.5 27.5t53 11q28 1 52 -8t42 -25.5t27.5 -40t9.5 -51.5 q0 -58 -37.5 -94.5t-94.5 -37.5q-28 -1 -52 8t-41.5 25.5t-27.5 39.5t-10 51z" />
<glyph unicode="&#x10c;" d="M1062 449q-18 -105 -65.5 -192.5t-119.5 -150t-165 -96.5t-201 -31q-88 2 -156 30t-117.5 75t-82 109.5t-49 134t-19 148.5t7.5 152l30 199q13 80 38 160t63 153t88.5 135.5t114.5 108t141.5 70.5t168.5 23q108 -2 187.5 -39.5t132.5 -102t80.5 -151t30.5 -187.5h-233 q-1 55 -11 106t-34 90t-65.5 63.5t-104.5 26.5q-61 2 -108.5 -17.5t-85 -53.5t-65 -80t-47.5 -97t-32.5 -104t-20.5 -102l-31 -202q-6 -42 -9.5 -91t-1 -99t13.5 -96.5t34.5 -83.5t61.5 -60t96 -25q65 -2 116 18.5t88.5 58t62.5 88t39 109.5zM844 1741l165 134l206 2l-1 -21 l-303 -249h-144l-234 248l1 22l192 -1z" />
<glyph unicode="&#x10d;" d="M534 169q43 -1 84.5 11.5t75 37t57 59t31.5 78.5l220 1q-7 -88 -52 -158.5t-113 -119.5t-151 -75t-165 -24q-116 2 -198 47.5t-132.5 120t-69.5 171t-8 201.5l4 37q13 112 58 212.5t117.5 175.5t170.5 118t217 40q89 -2 162.5 -32.5t125 -84t78.5 -127.5t22 -164l-219 1 q3 44 -9 82.5t-36 67.5t-60 46t-82 19q-75 3 -130 -28.5t-93 -82.5t-60 -115t-31 -128l-4 -36q-4 -37 -4.5 -77t4.5 -78.5t17.5 -73.5t35 -61.5t56 -43t81.5 -17.5zM747 1409l165 134l206 2l-1 -21l-303 -249h-144l-234 248l1 22l192 -1z" />
<glyph unicode="&#x10e;" d="M28 0l253 1456l333 -1q144 -3 250 -58t172 -147t91.5 -212.5t8.5 -255.5l-15 -110q-22 -142 -82.5 -265t-154 -213.5t-217.5 -142t-273 -51.5h-366zM485 1262l-185 -1069l103 -1q106 0 188.5 38.5t142 104t96.5 152.5t52 185l17 113q11 84 4 167.5t-40 150.5t-95.5 110.5 t-162.5 47.5zM726 1726l165 134l206 2l-1 -21l-303 -249h-144l-234 248l1 22l192 -1z" />
<glyph unicode="&#x10f;" horiz-adv-x="1352" d="M110 543q8 67 27 135t48.5 131t70 117t93 94t117.5 62t142 20t142 -31t113 -88l103 553h234l-266 -1536h-210l15 110q-60 -64 -133 -98t-163 -32q-71 2 -125 26.5t-93.5 65t-65 94t-39 113t-16 121.5t3.5 121zM341 521q-5 -52 -3.5 -111.5t19 -111t55.5 -86t106 -36.5 q77 -2 134 34t100 96l83 472q-24 62 -71 94.5t-113 34.5q-75 2 -130 -31t-91.5 -86t-57.5 -119t-28 -129zM1643 1399q-19 -117 -81.5 -217.5t-153.5 -173.5l-111 80q52 72 88.5 146.5t51.5 162.5l29 163h203z" />
<glyph unicode="&#x110;" horiz-adv-x="1232" d="M58 0l113 651h-196l30 170h195l111 635l333 -1q144 -3 250 -58t172 -147t91.5 -212.5t8.5 -255.5l-15 -110q-22 -142 -82.5 -265t-154 -213.5t-217.5 -142t-273 -51.5h-366zM623 651h-214l-79 -458l103 -1q106 0 188.5 38.5t142 104t96.5 152.5t52 185l17 113 q11 84 4 167.5t-40 150.5t-95.5 110.5t-162.5 47.5l-120 1l-76 -441h215z" />
<glyph unicode="&#x111;" horiz-adv-x="1232" d="M1323 1224h-177l-212 -1224h-210l15 110q-60 -64 -133 -98t-163 -32q-71 2 -125 26.5t-93.5 65t-65 94t-39 113t-16 121.5t3.5 121l2 22q8 67 27 135t48.5 131t70 117t93 94t117.5 62t142 20t142 -31t113 -88l45 241h-233l30 170h234l27 142h234l-25 -142h179zM341 521 q-5 -52 -3.5 -111.5t19 -111t55.5 -86t106 -36.5q77 -2 134 34t100 96l83 472q-24 62 -71 94.5t-113 34.5q-75 2 -130 -31t-91.5 -86t-57.5 -119t-28 -129z" />
<glyph unicode="&#x112;" d="M982 653h-581l-79 -457h680l-34 -196h-915l252 1456h909l-35 -198h-673l-72 -411h582zM1150 1620h-706l26 157h705z" />
<glyph unicode="&#x113;" d="M547 -20q-110 2 -197 43.5t-144.5 111.5t-84.5 163.5t-17 200.5l5 42q8 73 32 144t61.5 134t87.5 115.5t111.5 90.5t132 58.5t149.5 18.5q114 -3 193.5 -48t127 -119t64 -169.5t3.5 -198.5l-15 -101h-722q-5 -58 8.5 -110.5t44 -93t77 -65t108.5 -25.5q88 -3 165.5 33 t137.5 99l117 -122q-37 -53 -87.5 -91.5t-109.5 -63.5t-122.5 -36.5t-125.5 -10.5zM665 910q-60 2 -108 -21t-85.5 -61t-65.5 -87t-47 -99l492 -1l4 21q7 49 -2 93t-34 78t-64 54.5t-90 22.5zM1070 1304h-706l26 157h705z" />
<glyph unicode="&#x114;" d="M982 653h-581l-79 -457h680l-34 -196h-915l252 1456h909l-35 -198h-673l-72 -411h582zM1137 1860q-5 -68 -32.5 -120.5t-71.5 -89t-102.5 -55t-124.5 -17.5q-64 1 -117 21t-91.5 56.5t-59 88t-19.5 116.5l175 -1q-2 -60 24 -99.5t92 -40.5q33 0 59 10t45 28.5t31.5 44.5 t18.5 56z" />
<glyph unicode="&#x115;" d="M547 -20q-110 2 -197 43.5t-144.5 111.5t-84.5 163.5t-17 200.5l5 42q8 73 32 144t61.5 134t87.5 115.5t111.5 90.5t132 58.5t149.5 18.5q114 -3 193.5 -48t127 -119t64 -169.5t3.5 -198.5l-15 -101h-722q-5 -58 8.5 -110.5t44 -93t77 -65t108.5 -25.5q88 -3 165.5 33 t137.5 99l117 -122q-37 -53 -87.5 -91.5t-109.5 -63.5t-122.5 -36.5t-125.5 -10.5zM665 910q-60 2 -108 -21t-85.5 -61t-65.5 -87t-47 -99l492 -1l4 21q7 49 -2 93t-34 78t-64 54.5t-90 22.5zM1057 1544q-5 -68 -32.5 -120.5t-71.5 -89t-102.5 -55t-124.5 -17.5 q-64 1 -117 21t-91.5 56.5t-59 88t-19.5 116.5l175 -1q-2 -60 24 -99.5t92 -40.5q33 0 59 10t45 28.5t31.5 44.5t18.5 56z" />
<glyph unicode="&#x116;" d="M982 653h-581l-79 -457h680l-34 -196h-915l252 1456h909l-35 -198h-673l-72 -411h582zM676 1707q0 28 10 52.5t27.5 42t41.5 27.5t53 11q28 1 52 -8t42 -25.5t27.5 -40t9.5 -51.5q0 -58 -37.5 -94.5t-94.5 -37.5q-28 -1 -52 8t-41.5 25.5t-27.5 39.5t-10 51z" />
<glyph unicode="&#x117;" d="M547 -20q-110 2 -197 43.5t-144.5 111.5t-84.5 163.5t-17 200.5l5 42q8 73 32 144t61.5 134t87.5 115.5t111.5 90.5t132 58.5t149.5 18.5q114 -3 193.5 -48t127 -119t64 -169.5t3.5 -198.5l-15 -101h-722q-5 -58 8.5 -110.5t44 -93t77 -65t108.5 -25.5q88 -3 165.5 33 t137.5 99l117 -122q-37 -53 -87.5 -91.5t-109.5 -63.5t-122.5 -36.5t-125.5 -10.5zM665 910q-60 2 -108 -21t-85.5 -61t-65.5 -87t-47 -99l492 -1l4 21q7 49 -2 93t-34 78t-64 54.5t-90 22.5zM597 1391q0 28 10 52.5t27.5 42t41.5 27.5t53 11q28 1 52 -8t42 -25.5t27.5 -40 t9.5 -51.5q0 -58 -37.5 -94.5t-94.5 -37.5q-28 -1 -52 8t-41.5 25.5t-27.5 39.5t-10 51z" />
<glyph unicode="&#x118;" d="M982 653h-581l-79 -457h680l-34 -196h-105l6 -3q-31 -15 -62.5 -34t-57.5 -43.5t-44 -55.5t-22 -68q-4 -29 8 -45.5t43 -17.5q23 -1 45.5 6.5t44.5 15.5l28 -143q-40 -22 -84.5 -32t-89.5 -9q-43 0 -78 14t-60 39t-38 60t-11 78q1 38 13.5 72t33 64t48 55.5t57.5 46.5 h-590l252 1456h909l-35 -198h-673l-72 -411h582z" />
<glyph unicode="&#x119;" d="M992 182q-48 -68 -117.5 -112t-149.5 -67q-28 -15 -55 -33.5t-49 -41.5t-37 -51t-18 -62q-4 -29 8 -45.5t43 -17.5q23 -1 45.5 6.5t44.5 15.5l28 -143q-40 -22 -84.5 -32t-89.5 -9q-43 0 -78 14t-60 39t-38 60t-11 78q2 63 32.5 113.5t76.5 90.5q-96 13 -170.5 58 t-124 113t-71.5 156t-13 187l5 42q8 73 32 144t61.5 134t87.5 115.5t111.5 90.5t132 58.5t149.5 18.5q114 -3 193.5 -48t127 -119t64 -169.5t3.5 -198.5l-15 -101h-722q-5 -58 8.5 -110.5t44 -93t77 -65t108.5 -25.5q88 -3 165.5 33t137.5 99zM665 910q-60 2 -108 -21 t-85.5 -61t-65.5 -87t-47 -99l492 -1l4 21q7 49 -2 93t-34 78t-64 54.5t-90 22.5z" />
<glyph unicode="&#x11a;" d="M982 653h-581l-79 -457h680l-34 -196h-915l252 1456h909l-35 -198h-673l-72 -411h582zM802 1726l165 134l206 2l-1 -21l-303 -249h-144l-234 248l1 22l192 -1z" />
<glyph unicode="&#x11b;" d="M547 -20q-110 2 -197 43.5t-144.5 111.5t-84.5 163.5t-17 200.5l5 42q8 73 32 144t61.5 134t87.5 115.5t111.5 90.5t132 58.5t149.5 18.5q114 -3 193.5 -48t127 -119t64 -169.5t3.5 -198.5l-15 -101h-722q-5 -58 8.5 -110.5t44 -93t77 -65t108.5 -25.5q88 -3 165.5 33 t137.5 99l117 -122q-37 -53 -87.5 -91.5t-109.5 -63.5t-122.5 -36.5t-125.5 -10.5zM665 910q-60 2 -108 -21t-85.5 -61t-65.5 -87t-47 -99l492 -1l4 21q7 49 -2 93t-34 78t-64 54.5t-90 22.5zM723 1410l165 134l206 2l-1 -21l-303 -249h-144l-234 248l1 22l192 -1z" />
<glyph unicode="&#x11c;" d="M1028 182q-47 -53 -105 -91.5t-123 -63.5t-135 -36.5t-139 -9.5q-88 2 -157 30t-120 75.5t-85 111t-52 135.5t-21.5 150t6.5 154l28 180q13 80 37.5 160.5t62.5 154t88.5 137t114.5 110t141.5 72.5t169.5 25q103 -2 182 -35.5t132.5 -93t82.5 -142t32 -181.5h-229 q-3 52 -15 98t-37 80.5t-64.5 55t-97.5 22.5q-59 2 -107 -18.5t-86 -55.5t-66.5 -82t-49.5 -99t-34.5 -105t-20.5 -101l-29 -183q-6 -43 -8 -93t2.5 -100t17.5 -97t39 -83.5t65.5 -59.5t97.5 -26q69 -3 135 15t117 66l55 292h-255l33 187h484zM1140 1635l-3 -29l-182 1 l-120 136l-169 -135l-191 -1l3 30l293 239h134z" />
<glyph unicode="&#x11d;" d="M111 542q8 68 27.5 136.5t49.5 131.5t71 117t94.5 93.5t118.5 61.5t143 20q81 -2 149.5 -32.5t116.5 -96.5l35 109h213l-179 -1053q-15 -106 -61.5 -191.5t-117.5 -145t-163.5 -90.5t-199.5 -29q-54 1 -107 13t-101.5 34.5t-91 55.5t-74.5 76l124 146q46 -63 108.5 -98.5 t141.5 -37.5q62 -2 114 16t92 52.5t67 83t39 108.5l15 74q-60 -57 -130.5 -87t-154.5 -28q-71 1 -126 25.5t-95 64.5t-66 93t-40 112.5t-17 122t3 122.5zM343 521q-6 -53 -3.5 -112.5t21 -110.5t57.5 -85.5t107 -36.5q76 -2 133 32.5t101 93.5l84 480q-52 122 -185 125 q-75 2 -130.5 -30.5t-93 -86t-59 -119t-29.5 -129.5zM1036 1303l-3 -29l-182 1l-120 136l-169 -135l-191 -1l3 30l293 239h134z" />
<glyph unicode="&#x11e;" d="M1028 182q-47 -53 -105 -91.5t-123 -63.5t-135 -36.5t-139 -9.5q-88 2 -157 30t-120 75.5t-85 111t-52 135.5t-21.5 150t6.5 154l28 180q13 80 37.5 160.5t62.5 154t88.5 137t114.5 110t141.5 72.5t169.5 25q103 -2 182 -35.5t132.5 -93t82.5 -142t32 -181.5h-229 q-3 52 -15 98t-37 80.5t-64.5 55t-97.5 22.5q-59 2 -107 -18.5t-86 -55.5t-66.5 -82t-49.5 -99t-34.5 -105t-20.5 -101l-29 -183q-6 -43 -8 -93t2.5 -100t17.5 -97t39 -83.5t65.5 -59.5t97.5 -26q69 -3 135 15t117 66l55 292h-255l33 187h484zM1150 1875 q-5 -68 -32.5 -120.5t-71.5 -89t-102.5 -55t-124.5 -17.5q-64 1 -117 21t-91.5 56.5t-59 88t-19.5 116.5l175 -1q-2 -60 24 -99.5t92 -40.5q33 0 59 10t45 28.5t31.5 44.5t18.5 56z" />
<glyph unicode="&#x11f;" d="M111 542q8 68 27.5 136.5t49.5 131.5t71 117t94.5 93.5t118.5 61.5t143 20q81 -2 149.5 -32.5t116.5 -96.5l35 109h213l-179 -1053q-15 -106 -61.5 -191.5t-117.5 -145t-163.5 -90.5t-199.5 -29q-54 1 -107 13t-101.5 34.5t-91 55.5t-74.5 76l124 146q46 -63 108.5 -98.5 t141.5 -37.5q62 -2 114 16t92 52.5t67 83t39 108.5l15 74q-60 -57 -130.5 -87t-154.5 -28q-71 1 -126 25.5t-95 64.5t-66 93t-40 112.5t-17 122t3 122.5zM343 521q-6 -53 -3.5 -112.5t21 -110.5t57.5 -85.5t107 -36.5q76 -2 133 32.5t101 93.5l84 480q-52 122 -185 125 q-75 2 -130.5 -30.5t-93 -86t-59 -119t-29.5 -129.5zM1046 1543q-5 -68 -32.5 -120.5t-71.5 -89t-102.5 -55t-124.5 -17.5q-64 1 -117 21t-91.5 56.5t-59 88t-19.5 116.5l175 -1q-2 -60 24 -99.5t92 -40.5q33 0 59 10t45 28.5t31.5 44.5t18.5 56z" />
<glyph unicode="&#x120;" d="M1028 182q-47 -53 -105 -91.5t-123 -63.5t-135 -36.5t-139 -9.5q-88 2 -157 30t-120 75.5t-85 111t-52 135.5t-21.5 150t6.5 154l28 180q13 80 37.5 160.5t62.5 154t88.5 137t114.5 110t141.5 72.5t169.5 25q103 -2 182 -35.5t132.5 -93t82.5 -142t32 -181.5h-229 q-3 52 -15 98t-37 80.5t-64.5 55t-97.5 22.5q-59 2 -107 -18.5t-86 -55.5t-66.5 -82t-49.5 -99t-34.5 -105t-20.5 -101l-29 -183q-6 -43 -8 -93t2.5 -100t17.5 -97t39 -83.5t65.5 -59.5t97.5 -26q69 -3 135 15t117 66l55 292h-255l33 187h484zM689 1722q0 28 10 52.5 t27.5 42t41.5 27.5t53 11q28 1 52 -8t42 -25.5t27.5 -40t9.5 -51.5q0 -58 -37.5 -94.5t-94.5 -37.5q-28 -1 -52 8t-41.5 25.5t-27.5 39.5t-10 51z" />
<glyph unicode="&#x121;" d="M111 542q8 68 27.5 136.5t49.5 131.5t71 117t94.5 93.5t118.5 61.5t143 20q81 -2 149.5 -32.5t116.5 -96.5l35 109h213l-179 -1053q-15 -106 -61.5 -191.5t-117.5 -145t-163.5 -90.5t-199.5 -29q-54 1 -107 13t-101.5 34.5t-91 55.5t-74.5 76l124 146q46 -63 108.5 -98.5 t141.5 -37.5q62 -2 114 16t92 52.5t67 83t39 108.5l15 74q-60 -57 -130.5 -87t-154.5 -28q-71 1 -126 25.5t-95 64.5t-66 93t-40 112.5t-17 122t3 122.5zM343 521q-6 -53 -3.5 -112.5t21 -110.5t57.5 -85.5t107 -36.5q76 -2 133 32.5t101 93.5l84 480q-52 122 -185 125 q-75 2 -130.5 -30.5t-93 -86t-59 -119t-29.5 -129.5zM586 1390q0 28 10 52.5t27.5 42t41.5 27.5t53 11q28 1 52 -8t42 -25.5t27.5 -40t9.5 -51.5q0 -58 -37.5 -94.5t-94.5 -37.5q-28 -1 -52 8t-41.5 25.5t-27.5 39.5t-10 51z" />
<glyph unicode="&#x122;" d="M1028 182q-47 -53 -105 -91.5t-123 -63.5t-135 -36.5t-139 -9.5q-88 2 -157 30t-120 75.5t-85 111t-52 135.5t-21.5 150t6.5 154l28 180q13 80 37.5 160.5t62.5 154t88.5 137t114.5 110t141.5 72.5t169.5 25q103 -2 182 -35.5t132.5 -93t82.5 -142t32 -181.5h-229 q-3 52 -15 98t-37 80.5t-64.5 55t-97.5 22.5q-59 2 -107 -18.5t-86 -55.5t-66.5 -82t-49.5 -99t-34.5 -105t-20.5 -101l-29 -183q-6 -43 -8 -93t2.5 -100t17.5 -97t39 -83.5t65.5 -59.5t97.5 -26q69 -3 135 15t117 66l55 292h-255l33 187h484zM602 -135q-12 -103 -62.5 -194 t-130.5 -157l-111 79q43 62 73.5 127.5t41.5 140.5l11 72h186z" />
<glyph unicode="&#x123;" d="M111 542q8 68 27.5 136.5t49.5 131.5t71 117t94.5 93.5t118.5 61.5t143 20q81 -2 149.5 -32.5t116.5 -96.5l35 109h213l-179 -1053q-15 -106 -61.5 -191.5t-117.5 -145t-163.5 -90.5t-199.5 -29q-54 1 -107 13t-101.5 34.5t-91 55.5t-74.5 76l124 146q46 -63 108.5 -98.5 t141.5 -37.5q62 -2 114 16t92 52.5t67 83t39 108.5l15 74q-60 -57 -130.5 -87t-154.5 -28q-71 1 -126 25.5t-95 64.5t-66 93t-40 112.5t-17 122t3 122.5zM343 521q-6 -53 -3.5 -112.5t21 -110.5t57.5 -85.5t107 -36.5q76 -2 133 32.5t101 93.5l84 480q-52 122 -185 125 q-75 2 -130.5 -30.5t-93 -86t-59 -119t-29.5 -129.5zM606 1386q14 94 61 178t124 141l126 -87q-38 -57 -64 -116t-39 -126l-22 -121h-206z" />
<glyph unicode="&#x124;" d="M956 0h-228l113 650h-479l-113 -650h-228l253 1456h228l-106 -609h478l106 609h229zM1098 1620l-3 -29l-182 1l-120 136l-169 -135l-191 -1l3 30l293 239h134z" />
<glyph unicode="&#x125;" d="M432 931q31 38 67 70t77 54.5t86.5 35t96.5 11.5q94 -2 157.5 -38.5t100 -96.5t48 -138t2.5 -162l-112 -667h-233l112 670q6 48 0 90t-25.5 74t-54 50.5t-87.5 20.5q-76 2 -137.5 -31t-112.5 -87l-138 -787h-233l266 1536h234zM1071 1694l-3 -29l-182 1l-120 136 l-169 -135l-191 -1l3 30l293 239h134z" />
<glyph unicode="&#x126;" d="M1139 1196h156l-29 -160h-155l-180 -1036h-228l113 650h-479l-113 -650h-228l180 1036h-80l29 160h79l45 260h228l-45 -260h478l45 260h229zM849 847l33 189h-478l-33 -189h478z" />
<glyph unicode="&#x127;" horiz-adv-x="1232" d="M774 1222h-257l-55 -291q31 38 67 70t77 54.5t86.5 35t96.5 11.5q94 -2 157.5 -38.5t100 -96.5t48 -138t2.5 -162l-112 -667h-233l112 670q6 48 0 90t-25.5 74t-54 50.5t-87.5 20.5q-76 2 -137.5 -31t-112.5 -87l-138 -787h-233l211 1222h-161l30 170h161l25 144h234 l-27 -144h256z" />
<glyph unicode="&#x128;" d="M324 1456h841l-35 -199h-305l-184 -1059h306l-35 -198h-841l35 198h298l184 1059h-299zM1116 1856q-4 -45 -20.5 -88.5t-45 -77t-68 -54t-89.5 -20.5q-38 0 -70.5 15t-63.5 33t-63 32.5t-69 13.5q-23 -1 -41 -10t-31 -23.5t-21.5 -33.5t-14.5 -39l-123 28q5 45 22 88.5 t45.5 78t68.5 55t90 20.5q37 0 69.5 -15t64 -33t64 -32.5t69.5 -13.5q23 1 41 10t31.5 23.5t23 33t15.5 38.5z" />
<glyph unicode="&#x129;" d="M276 1082h569l-153 -884h320l-35 -198h-889l35 198h333l119 685h-334zM1141 1508q-4 -45 -20.5 -88.5t-45 -77t-68 -54t-89.5 -20.5q-38 0 -70.5 15t-63.5 33t-63 32.5t-69 13.5q-23 -1 -41 -10t-31 -23.5t-21.5 -33.5t-14.5 -39l-123 28q5 45 22 88.5t45.5 78t68.5 55 t90 20.5q37 0 69.5 -15t64 -33t64 -32.5t69.5 -13.5q23 1 41 10t31.5 23.5t23 33t15.5 38.5z" />
<glyph unicode="&#x12a;" d="M324 1456h841l-35 -199h-305l-184 -1059h306l-35 -198h-841l35 198h298l184 1059h-299zM1096 1625h-706l26 157h705z" />
<glyph unicode="&#x12b;" d="M276 1082h569l-153 -884h320l-35 -198h-889l35 198h333l119 685h-334zM1121 1278h-706l26 157h705z" />
<glyph unicode="&#x12c;" d="M324 1456h841l-35 -199h-305l-184 -1059h306l-35 -198h-841l35 198h298l184 1059h-299zM1083 1865q-5 -68 -32.5 -120.5t-71.5 -89t-102.5 -55t-124.5 -17.5q-64 1 -117 21t-91.5 56.5t-59 88t-19.5 116.5l175 -1q-2 -60 24 -99.5t92 -40.5q33 0 59 10t45 28.5t31.5 44.5 t18.5 56z" />
<glyph unicode="&#x12d;" d="M276 1082h569l-153 -884h320l-35 -198h-889l35 198h333l119 685h-334zM1108 1517q-5 -68 -32.5 -120.5t-71.5 -89t-102.5 -55t-124.5 -17.5q-64 1 -117 21t-91.5 56.5t-59 88t-19.5 116.5l175 -1q-2 -60 24 -99.5t92 -40.5q33 0 59 10t45 28.5t31.5 44.5t18.5 56z" />
<glyph unicode="&#x12e;" d="M324 1456h841l-35 -199h-305l-184 -1059h306l-35 -198h-126l6 -3q-31 -15 -62.5 -34t-57.5 -43.5t-44 -55.5t-22 -68q-4 -29 8 -45.5t43 -17.5q23 -1 45.5 6.5t44.5 15.5l28 -143q-40 -22 -84.5 -32t-89.5 -9q-43 0 -78 14t-60 39t-38 60t-11 78q1 38 13.5 72t33 64 t48 55.5t57.5 46.5h-495l35 198h298l184 1059h-299z" />
<glyph unicode="&#x12f;" d="M284 1082h561l-153 -884h312l-35 -198h-337l6 -3q-31 -15 -62.5 -34t-57.5 -43.5t-44 -55.5t-22 -68q-4 -29 8 -45.5t43 -17.5q23 -1 45.5 6.5t44.5 15.5l28 -143q-40 -22 -84.5 -32t-89.5 -9q-43 0 -78 14t-60 39t-38 60t-11 78q1 38 13.5 72t33 64t48 55.5t57.5 46.5 h-316l35 198h325l119 685h-326zM639 1358q0 29 10 53t28 42t42.5 28t53.5 11q28 1 52.5 -8t43 -25.5t29 -40t10.5 -52.5t-11 -53.5t-29 -42.5t-43 -28t-53 -10q-28 -1 -52.5 8t-42.5 25.5t-28 40t-10 52.5z" />
<glyph unicode="&#x130;" d="M324 1456h841l-35 -199h-305l-184 -1059h306l-35 -198h-841l35 198h298l184 1059h-299zM622 1712q0 28 10 52.5t27.5 42t41.5 27.5t53 11q28 1 52 -8t42 -25.5t27.5 -40t9.5 -51.5q0 -58 -37.5 -94.5t-94.5 -37.5q-28 -1 -52 8t-41.5 25.5t-27.5 39.5t-10 51z" />
<glyph unicode="&#x131;" d="M276 1082h569l-153 -884h320l-35 -198h-889l35 198h333l119 685h-334z" />
<glyph unicode="&#x132;" d="M213 0h-195l252 1456h196zM1023 1456h195l-192 -1134q-11 -79 -40.5 -142.5t-76.5 -108.5t-112.5 -68.5t-147.5 -21.5q-76 1 -131 28t-90 72.5t-50.5 107t-12.5 133.5l197 -1q-2 -30 -0.5 -61t12 -57.5t31.5 -43.5t59 -18q42 -2 71.5 12.5t49 39.5t30.5 58.5t16 69.5z " />
<glyph unicode="&#x133;" d="M751 1082h405l-186 -1088q-14 -98 -52 -177.5t-98.5 -135.5t-142 -86.5t-183.5 -30.5q-53 0 -105 4.5t-105 12.5l28 169q44 -8 88 -11t89 -4q62 -1 111 17t85 51.5t58.5 81.5t31.5 108l156 919h-210zM162 1082h417l-158 -912h219l-30 -170h-642l30 170h228l128 742h-222z M420 1357q0 49 31 81t80 34q25 1 46 -7t36 -22t23.5 -34.5t8.5 -45.5q-1 -49 -32.5 -80t-80.5 -33q-24 -1 -44.5 6.5t-35.5 22t-23.5 34.5t-8.5 44zM985 1358q1 49 32 81t80 34q24 1 45 -7t36 -22t23.5 -34.5t8.5 -45.5q0 -49 -32 -80t-80 -33q-24 -1 -45 6.5t-36 22 t-23.5 34.5t-8.5 44z" />
<glyph unicode="&#x134;" d="M955 1456h237l-171 -1011q-15 -102 -63 -188t-120 -148t-164 -96.5t-195 -32.5q-101 2 -178 35t-129.5 92t-79 140t-25.5 179l236 -1q-2 -51 7.5 -95.5t32.5 -78t61 -54t94 -21.5q58 -2 106.5 20t85 59.5t60 87t32.5 102.5zM1434 1613l-3 -29l-182 1l-120 136l-169 -135 l-191 -1l3 30l293 239h134z" />
<glyph unicode="&#x135;" d="M359 1082h539l-188 -1099q-14 -102 -54 -181t-103 -132.5t-147.5 -81t-187.5 -26.5q-50 0 -98.5 5t-97.5 13l35 194q81 -15 163 -15q109 -2 174 58t82 165l153 901h-305zM1146 1263l-3 -29l-182 1l-120 136l-169 -135l-191 -1l3 30l293 239h134z" />
<glyph unicode="&#x136;" d="M542 630l-189 -181l-78 -449h-237l253 1456h237l-117 -670l166 180l442 490h301l-601 -649l359 -807h-267zM583 -131q-12 -103 -62.5 -194t-130.5 -157l-111 79q43 62 73.5 127.5t41.5 140.5l11 72h186z" />
<glyph unicode="&#x137;" d="M495 471l-156 -131l-59 -340h-233l266 1536h234l-156 -894l110 105l364 335l296 -1l-493 -459l352 -622h-275zM531 -130q-12 -103 -62.5 -194t-130.5 -157l-111 79q43 62 73.5 127.5t41.5 140.5l11 72h186z" />
<glyph unicode="&#x138;" d="M530 448l-184 -141l-53 -307h-234l188 1082h234l-85 -484l114 110l393 374h303l-497 -473l319 -609h-281z" />
<glyph unicode="&#x139;" d="M330 196h674l-34 -196h-908l253 1456h234zM562 1794h282l-312 -273h-192z" />
<glyph unicode="&#x13a;" d="M355 1536h569l-232 -1338h320l-35 -198h-889l35 198h333l198 1139h-334zM935 1893h282l-312 -273h-192z" />
<glyph unicode="&#x13b;" d="M330 196h674l-34 -196h-908l253 1456h234zM589 -119q-12 -103 -62.5 -194t-130.5 -157l-111 79q43 62 73.5 127.5t41.5 140.5l11 72h186z" />
<glyph unicode="&#x13c;" d="M355 1536h569l-232 -1338h320l-35 -198h-889l35 198h333l198 1139h-334zM623 -118q-12 -103 -62.5 -194t-130.5 -157l-111 79q43 62 73.5 127.5t41.5 140.5l11 72h186z" />
<glyph unicode="&#x13d;" d="M330 196h674l-34 -196h-908l253 1456h234zM1108 1296q-19 -117 -81.5 -217.5t-153.5 -173.5l-111 80q52 72 88.5 146.5t51.5 162.5l29 163h203z" />
<glyph unicode="&#x13e;" horiz-adv-x="1352" d="M355 1536h569l-232 -1338h320l-35 -198h-889l35 198h333l198 1139h-334zM1372 1380q-19 -117 -81.5 -217.5t-153.5 -173.5l-111 80q52 72 88.5 146.5t51.5 162.5l29 163h203z" />
<glyph unicode="&#x13f;" d="M330 196h674l-34 -196h-908l253 1456h234zM636 799q0 28 10 52.5t27.5 42t41.5 27.5t53 11q28 1 52 -8t42 -25.5t27.5 -40t9.5 -51.5q0 -58 -37.5 -94.5t-94.5 -37.5q-28 -1 -52 8t-41.5 25.5t-27.5 39.5t-10 51z" />
<glyph unicode="&#x140;" horiz-adv-x="1422" d="M355 1536h569l-232 -1338h320l-35 -198h-889l35 198h333l198 1139h-334zM903 812q0 28 10 52.5t27.5 42t41.5 27.5t53 11q28 1 52 -8t42 -25.5t27.5 -40t9.5 -51.5q0 -58 -37.5 -94.5t-94.5 -37.5q-28 -1 -52 8t-41.5 25.5t-27.5 39.5t-10 51z" />
<glyph unicode="&#x141;" d="M461 872l250 74l-33 -191l-250 -74l-84 -485h674l-34 -196h-908l105 608l-135 -40l34 191l134 40l115 657h234z" />
<glyph unicode="&#x142;" d="M362 1536h569l-92 -527l293 128l-34 -194l-292 -128l-107 -617h320l-35 -198h-889l35 198h333l88 506l-338 -147l34 193l337 147l77 440h-334z" />
<glyph unicode="&#x143;" d="M955 0h-230l-289 1011l-176 -1011h-238l253 1456h232l286 -1008l178 1008h237zM861 1823h282l-312 -273h-192z" />
<glyph unicode="&#x144;" d="M443 1083l-20 -152q66 78 150.5 125.5t189.5 45.5q93 -2 155 -37.5t97.5 -94t47 -135t2.5 -159.5l-113 -676h-233l112 673q6 50 1 92t-24 73t-54 49t-90 19q-39 1 -74 -8t-65.5 -26.5t-58 -41.5t-51.5 -53l-135 -777h-234l188 1082zM812 1501h282l-312 -273h-192z" />
<glyph unicode="&#x145;" d="M955 0h-230l-289 1011l-176 -1011h-238l253 1456h232l286 -1008l178 1008h237zM556 -123q-12 -103 -62.5 -194t-130.5 -157l-111 79q43 62 73.5 127.5t41.5 140.5l11 72h186z" />
<glyph unicode="&#x146;" d="M443 1083l-20 -152q66 78 150.5 125.5t189.5 45.5q93 -2 155 -37.5t97.5 -94t47 -135t2.5 -159.5l-113 -676h-233l112 673q6 50 1 92t-24 73t-54 49t-90 19q-39 1 -74 -8t-65.5 -26.5t-58 -41.5t-51.5 -53l-135 -777h-234l188 1082zM565 -119q-12 -103 -62.5 -194 t-130.5 -157l-111 79q43 62 73.5 127.5t41.5 140.5l11 72h186z" />
<glyph unicode="&#x147;" d="M955 0h-230l-289 1011l-176 -1011h-238l253 1456h232l286 -1008l178 1008h237zM767 1731l165 134l206 2l-1 -21l-303 -249h-144l-234 248l1 22l192 -1z" />
<glyph unicode="&#x148;" d="M443 1083l-20 -152q66 78 150.5 125.5t189.5 45.5q93 -2 155 -37.5t97.5 -94t47 -135t2.5 -159.5l-113 -676h-233l112 673q6 50 1 92t-24 73t-54 49t-90 19q-39 1 -74 -8t-65.5 -26.5t-58 -41.5t-51.5 -53l-135 -777h-234l188 1082zM719 1409l165 134l206 2l-1 -21 l-303 -249h-144l-234 248l1 22l192 -1z" />
<glyph unicode="&#x149;" d="M443 1083l-20 -152q66 78 150.5 125.5t189.5 45.5q93 -2 155 -37.5t97.5 -94t47 -135t2.5 -159.5l-113 -676h-233l112 673q6 50 1 92t-24 73t-54 49t-90 19q-39 1 -74 -8t-65.5 -26.5t-58 -41.5t-51.5 -53l-135 -777h-234l188 1082zM314 1398q-19 -117 -81.5 -217.5 t-153.5 -173.5l-111 80q52 72 88.5 146.5t51.5 162.5l29 163h203z" />
<glyph unicode="&#x14a;" d="M1192 1456l-259 -1519q-11 -83 -42 -152t-80.5 -118.5t-118.5 -77t-156 -27.5q-33 0 -65 5t-64 13l35 188q23 -6 47.5 -10.5t49.5 -4.5q38 0 65.5 16.5t46 43t30 59t17.5 64.5l11 64l-254 971l-169 -971h-234l252 1456h229l256 -969l168 969h235z" />
<glyph unicode="&#x14b;" d="M455 1083l-22 -152q61 78 140.5 125.5t182.5 45.5q92 -2 152 -38.5t93 -96t42.5 -136t0.5 -157.5l-120 -738q-11 -82 -41 -151t-79 -119.5t-117 -78t-155 -27.5q-33 0 -65 5t-64 13l32 196q23 -6 47.5 -10.5t49.5 -4.5q38 0 65 15.5t46 40.5t30 56.5t16 64.5l120 737 q5 46 2.5 87.5t-18 73.5t-47.5 51.5t-85 20.5q-70 2 -127.5 -26t-105.5 -79l-140 -801h-234l188 1082z" />
<glyph unicode="&#x14c;" d="M1110 635q-13 -79 -37.5 -159t-61.5 -153.5t-87 -137t-114 -110t-141 -72t-168 -23.5q-87 2 -153.5 31t-115 77.5t-79.5 112t-47 135.5t-18 148.5t8 149.5l29 186q12 78 36.5 158t61 153.5t85.5 137.5t112 110.5t139 72.5t167 24q87 -2 154.5 -31t117 -77t81.5 -112 t48.5 -136.5t19 -149t-7.5 -150.5zM904 823q5 40 8.5 88.5t0 98t-15 96t-35 83t-61 59.5t-93.5 25q-59 2 -105.5 -17.5t-82.5 -54t-62.5 -80.5t-45.5 -97t-31.5 -103t-20.5 -99l-29 -189q-6 -39 -9.5 -87.5t-1 -98t13.5 -96.5t33.5 -84t59.5 -60.5t93 -25.5 q59 -2 106.5 17.5t84 54t64 81t47.5 97.5t32.5 103.5t20.5 99.5zM1144 1646h-706l26 157h705z" />
<glyph unicode="&#x14d;" d="M99 544q14 112 58.5 214.5t117 179.5t171 122t219.5 42q115 -3 197.5 -49.5t133 -122.5t70 -173.5t8.5 -202.5l-2 -22q-14 -112 -59 -213.5t-117.5 -178t-171 -120.5t-218.5 -41q-114 3 -196.5 49t-133.5 121t-70.5 172t-8.5 202zM330 523q-4 -37 -4.5 -77t5.5 -79 t19 -74t36 -62t56.5 -44t80.5 -18q75 -3 130.5 30t93.5 86t60.5 119t30.5 129l2 20q6 55 3 117t-22.5 114.5t-61 88t-111.5 37.5q-75 2 -131 -31t-94 -86.5t-60.5 -119.5t-30.5 -129zM1077 1303h-706l26 157h705z" />
<glyph unicode="&#x14e;" d="M1110 635q-13 -79 -37.5 -159t-61.5 -153.5t-87 -137t-114 -110t-141 -72t-168 -23.5q-87 2 -153.5 31t-115 77.5t-79.5 112t-47 135.5t-18 148.5t8 149.5l29 186q12 78 36.5 158t61 153.5t85.5 137.5t112 110.5t139 72.5t167 24q87 -2 154.5 -31t117 -77t81.5 -112 t48.5 -136.5t19 -149t-7.5 -150.5zM904 823q5 40 8.5 88.5t0 98t-15 96t-35 83t-61 59.5t-93.5 25q-59 2 -105.5 -17.5t-82.5 -54t-62.5 -80.5t-45.5 -97t-31.5 -103t-20.5 -99l-29 -189q-6 -39 -9.5 -87.5t-1 -98t13.5 -96.5t33.5 -84t59.5 -60.5t93 -25.5 q59 -2 106.5 17.5t84 54t64 81t47.5 97.5t32.5 103.5t20.5 99.5zM1131 1886q-5 -68 -32.5 -120.5t-71.5 -89t-102.5 -55t-124.5 -17.5q-64 1 -117 21t-91.5 56.5t-59 88t-19.5 116.5l175 -1q-2 -60 24 -99.5t92 -40.5q33 0 59 10t45 28.5t31.5 44.5t18.5 56z" />
<glyph unicode="&#x14f;" d="M99 544q14 112 58.5 214.5t117 179.5t171 122t219.5 42q115 -3 197.5 -49.5t133 -122.5t70 -173.5t8.5 -202.5l-2 -22q-14 -112 -59 -213.5t-117.5 -178t-171 -120.5t-218.5 -41q-114 3 -196.5 49t-133.5 121t-70.5 172t-8.5 202zM330 523q-4 -37 -4.5 -77t5.5 -79 t19 -74t36 -62t56.5 -44t80.5 -18q75 -3 130.5 30t93.5 86t60.5 119t30.5 129l2 20q6 55 3 117t-22.5 114.5t-61 88t-111.5 37.5q-75 2 -131 -31t-94 -86.5t-60.5 -119.5t-30.5 -129zM1064 1543q-5 -68 -32.5 -120.5t-71.5 -89t-102.5 -55t-124.5 -17.5q-64 1 -117 21 t-91.5 56.5t-59 88t-19.5 116.5l175 -1q-2 -60 24 -99.5t92 -40.5q33 0 59 10t45 28.5t31.5 44.5t18.5 56z" />
<glyph unicode="&#x150;" d="M1110 635q-13 -79 -37.5 -159t-61.5 -153.5t-87 -137t-114 -110t-141 -72t-168 -23.5q-87 2 -153.5 31t-115 77.5t-79.5 112t-47 135.5t-18 148.5t8 149.5l29 186q12 78 36.5 158t61 153.5t85.5 137.5t112 110.5t139 72.5t167 24q87 -2 154.5 -31t117 -77t81.5 -112 t48.5 -136.5t19 -149t-7.5 -150.5zM904 823q5 40 8.5 88.5t0 98t-15 96t-35 83t-61 59.5t-93.5 25q-59 2 -105.5 -17.5t-82.5 -54t-62.5 -80.5t-45.5 -97t-31.5 -103t-20.5 -99l-29 -189q-6 -39 -9.5 -87.5t-1 -98t13.5 -96.5t33.5 -84t59.5 -60.5t93 -25.5 q59 -2 106.5 17.5t84 54t64 81t47.5 97.5t32.5 103.5t20.5 99.5zM1094 1888h268l-344 -266h-209zM758 1888h251l-290 -266h-195z" />
<glyph unicode="&#x151;" d="M99 544q14 112 58.5 214.5t117 179.5t171 122t219.5 42q115 -3 197.5 -49.5t133 -122.5t70 -173.5t8.5 -202.5l-2 -22q-14 -112 -59 -213.5t-117.5 -178t-171 -120.5t-218.5 -41q-114 3 -196.5 49t-133.5 121t-70.5 172t-8.5 202zM330 523q-4 -37 -4.5 -77t5.5 -79 t19 -74t36 -62t56.5 -44t80.5 -18q75 -3 130.5 30t93.5 86t60.5 119t30.5 129l2 20q6 55 3 117t-22.5 114.5t-61 88t-111.5 37.5q-75 2 -131 -31t-94 -86.5t-60.5 -119.5t-30.5 -129zM1027 1545h268l-344 -266h-209zM691 1545h251l-290 -266h-195z" />
<glyph unicode="&#x152;" d="M1051 0h-396q-66 -5 -131 -13t-132 -7q-72 2 -127 23.5t-94.5 58t-65 86t-38.5 106t-15 118.5t6 124l74 464q15 102 50.5 196t95 166t145 114.5t199.5 41.5q66 0 130 -8.5t130 -13.5h411l-33 -189h-356l-72 -418h307l-34 -189h-306l-81 -464h368zM407 177q22 -1 44 -0.5 t45 0.5l199 1109q-22 2 -43.5 3.5t-44.5 1.5q-71 1 -117.5 -27.5t-75.5 -75.5t-44.5 -106t-23.5 -119l-71 -468q-4 -31 -7 -66t-2.5 -69.5t7 -66.5t22.5 -57t43 -41t69 -18z" />
<glyph unicode="&#x153;" d="M47 639q12 85 40.5 169t77 150.5t120.5 106.5t171 38q65 -2 122.5 -25.5t96.5 -76.5q48 46 104 74t124 27q86 -2 141 -42t85 -102t37.5 -137t-0.5 -147l-32 -202h-414l-8 -48q-3 -22 -5.5 -49t-2 -54.5t6 -53.5t18 -46.5t33 -33.5t52.5 -14q46 -1 86.5 13.5t79.5 37.5 l43 -158q-48 -46 -109.5 -66t-127.5 -20q-69 1 -132 25t-107 79q-53 -50 -114 -78t-135 -26q-93 2 -152 45t-90.5 109.5t-39 147.5t1.5 158zM246 438q-2 -18 -5 -44.5t-4 -56t2 -59.5t12.5 -54t27 -39.5t46.5 -16.5q48 -2 77 27.5t46.5 72.5t25 90.5t11.5 80.5l25 203 q2 18 4.5 44.5t3.5 56t-2 59.5t-12.5 53.5t-27.5 39t-47 16.5q-32 1 -55 -12t-40 -36t-28 -52t-18 -59t-11 -59t-7 -51zM878 911q-28 1 -49 -12.5t-35.5 -36.5t-24.5 -52t-16.5 -58.5t-10.5 -56.5t-7 -46h205l12 86q2 22 3 52t-5.5 57t-23 46t-48.5 21z" />
<glyph unicode="&#x154;" d="M617 568h-240l-99 -568h-234l252 1456l435 -1q98 -2 181.5 -30.5t143 -82.5t90 -133.5t21.5 -183.5q-6 -75 -32.5 -137.5t-68.5 -112t-99 -88t-125 -65.5l195 -609l-1 -13h-249zM410 762l205 -2q59 0 113 17t96.5 50t70 80.5t35.5 109.5q14 110 -42.5 174.5t-165.5 69.5 l-225 1zM868 1811h282l-312 -273h-192z" />
<glyph unicode="&#x155;" d="M945 1104q50 -1 100 -7.5t98 -22.5l-62 -234q-51 12 -101.5 19.5t-103.5 8.5q-112 1 -194.5 -47.5t-139.5 -143.5l-118 -677h-233l188 1082l218 1l-27 -171q36 43 77.5 78.5t88.5 61t99 39t110 13.5zM789 1501h282l-312 -273h-192z" />
<glyph unicode="&#x156;" d="M617 568h-240l-99 -568h-234l252 1456l435 -1q98 -2 181.5 -30.5t143 -82.5t90 -133.5t21.5 -183.5q-6 -75 -32.5 -137.5t-68.5 -112t-99 -88t-125 -65.5l195 -609l-1 -13h-249zM410 762l205 -2q59 0 113 17t96.5 50t70 80.5t35.5 109.5q14 110 -42.5 174.5t-165.5 69.5 l-225 1zM571 -119q-12 -103 -62.5 -194t-130.5 -157l-111 79q43 62 73.5 127.5t41.5 140.5l11 72h186z" />
<glyph unicode="&#x157;" d="M945 1104q50 -1 100 -7.5t98 -22.5l-62 -234q-51 12 -101.5 19.5t-103.5 8.5q-112 1 -194.5 -47.5t-139.5 -143.5l-118 -677h-233l188 1082l218 1l-27 -171q36 43 77.5 78.5t88.5 61t99 39t110 13.5zM391 -119q-12 -103 -62.5 -194t-130.5 -157l-111 79q43 62 73.5 127.5 t41.5 140.5l11 72h186z" />
<glyph unicode="&#x158;" d="M617 568h-240l-99 -568h-234l252 1456l435 -1q98 -2 181.5 -30.5t143 -82.5t90 -133.5t21.5 -183.5q-6 -75 -32.5 -137.5t-68.5 -112t-99 -88t-125 -65.5l195 -609l-1 -13h-249zM410 762l205 -2q59 0 113 17t96.5 50t70 80.5t35.5 109.5q14 110 -42.5 174.5t-165.5 69.5 l-225 1zM774 1719l165 134l206 2l-1 -21l-303 -249h-144l-234 248l1 22l192 -1z" />
<glyph unicode="&#x159;" d="M945 1104q50 -1 100 -7.5t98 -22.5l-62 -234q-51 12 -101.5 19.5t-103.5 8.5q-112 1 -194.5 -47.5t-139.5 -143.5l-118 -677h-233l188 1082l218 1l-27 -171q36 43 77.5 78.5t88.5 61t99 39t110 13.5zM696 1409l165 134l206 2l-1 -21l-303 -249h-144l-234 248l1 22l192 -1 z" />
<glyph unicode="&#x15a;" d="M843 382q7 55 -13 95t-55 69t-80 49t-88 35q-75 26 -147.5 64t-129 90.5t-89 121.5t-26.5 159q6 100 55 177.5t123 130t166 79t184 24.5q97 -2 178.5 -35t140.5 -91.5t91 -139.5t29 -179h-233q-1 53 -14.5 98t-41 78t-68.5 52t-98 20q-49 1 -96 -12.5t-85.5 -40.5 t-64 -67.5t-31.5 -92.5q-6 -53 16.5 -90.5t60 -64t83 -45t86.5 -32.5q77 -27 148.5 -67t125.5 -94.5t84.5 -126t24.5 -161.5q-7 -103 -56 -179.5t-124 -127t-168 -75t-186 -22.5q-100 2 -188 34.5t-152.5 91.5t-101 143t-33.5 188h234q1 -60 17.5 -108t49 -82t79.5 -53 t108 -20q49 -1 97 11.5t87.5 38.5t66.5 65t34 92zM883 1844h282l-312 -273h-192z" />
<glyph unicode="&#x15b;" d="M787 299q6 42 -15.5 68t-55.5 42t-73.5 25t-67.5 16q-41 10 -85 23t-85.5 31t-79 42.5t-64.5 56.5t-42.5 72.5t-12.5 91.5q3 58 24 105.5t56 85t81 65.5t97 45.5t104 26t104 7.5q79 -1 153.5 -22.5t132 -64.5t91.5 -107.5t33 -151.5l-232 1q1 41 -14 71.5t-40.5 51 t-60 30.5t-73.5 10q-35 0 -73 -7t-70.5 -23.5t-56 -44t-29.5 -67.5q-6 -41 12.5 -66t49.5 -40t67.5 -23t65.5 -14q43 -10 89 -22.5t90 -30t83 -41.5t68 -57t44.5 -75t13.5 -96q-5 -92 -52 -156t-118 -104t-155 -58t-162 -16q-81 1 -159 24.5t-138.5 68.5t-97 112.5 t-35.5 157.5l226 -1q1 -47 18.5 -81t46.5 -56t68 -33t83 -11q35 0 75.5 6t76.5 21.5t62 42.5t32 69zM802 1501h282l-312 -273h-192z" />
<glyph unicode="&#x15c;" d="M843 382q7 55 -13 95t-55 69t-80 49t-88 35q-75 26 -147.5 64t-129 90.5t-89 121.5t-26.5 159q6 100 55 177.5t123 130t166 79t184 24.5q97 -2 178.5 -35t140.5 -91.5t91 -139.5t29 -179h-233q-1 53 -14.5 98t-41 78t-68.5 52t-98 20q-49 1 -96 -12.5t-85.5 -40.5 t-64 -67.5t-31.5 -92.5q-6 -53 16.5 -90.5t60 -64t83 -45t86.5 -32.5q77 -27 148.5 -67t125.5 -94.5t84.5 -126t24.5 -161.5q-7 -103 -56 -179.5t-124 -127t-168 -75t-186 -22.5q-100 2 -188 34.5t-152.5 91.5t-101 143t-33.5 188h234q1 -60 17.5 -108t49 -82t79.5 -53 t108 -20q49 -1 97 11.5t87.5 38.5t66.5 65t34 92zM1114 1646l-3 -29l-182 1l-120 136l-169 -135l-191 -1l3 30l293 239h134z" />
<glyph unicode="&#x15d;" d="M787 299q6 42 -15.5 68t-55.5 42t-73.5 25t-67.5 16q-41 10 -85 23t-85.5 31t-79 42.5t-64.5 56.5t-42.5 72.5t-12.5 91.5q3 58 24 105.5t56 85t81 65.5t97 45.5t104 26t104 7.5q79 -1 153.5 -22.5t132 -64.5t91.5 -107.5t33 -151.5l-232 1q1 41 -14 71.5t-40.5 51 t-60 30.5t-73.5 10q-35 0 -73 -7t-70.5 -23.5t-56 -44t-29.5 -67.5q-6 -41 12.5 -66t49.5 -40t67.5 -23t65.5 -14q43 -10 89 -22.5t90 -30t83 -41.5t68 -57t44.5 -75t13.5 -96q-5 -92 -52 -156t-118 -104t-155 -58t-162 -16q-81 1 -159 24.5t-138.5 68.5t-97 112.5 t-35.5 157.5l226 -1q1 -47 18.5 -81t46.5 -56t68 -33t83 -11q35 0 75.5 6t76.5 21.5t62 42.5t32 69zM1033 1303l-3 -29l-182 1l-120 136l-169 -135l-191 -1l3 30l293 239h134z" />
<glyph unicode="&#x15e;" d="M843 382q7 55 -13 95t-55 69t-80 49t-88 35q-75 26 -147.5 64t-129 90.5t-89 121.5t-26.5 159q6 100 55 177.5t123 130t166 79t184 24.5q97 -2 178.5 -35t140.5 -91.5t91 -139.5t29 -179h-233q-1 53 -14.5 98t-41 78t-68.5 52t-98 20q-49 1 -96 -12.5t-85.5 -40.5 t-64 -67.5t-31.5 -92.5q-6 -53 16.5 -90.5t60 -64t83 -45t86.5 -32.5q77 -27 148.5 -67t125.5 -94.5t84.5 -126t24.5 -161.5q-7 -103 -56 -179.5t-124 -127t-168 -75t-186 -22.5q-100 2 -188 34.5t-152.5 91.5t-101 143t-33.5 188h234q1 -60 17.5 -108t49 -82t79.5 -53 t108 -20q49 -1 97 11.5t87.5 38.5t66.5 65t34 92zM616 -6l-20 -57q62 -14 93 -57t29 -106q-2 -69 -35.5 -113.5t-84.5 -70t-111.5 -36t-116.5 -11.5l7 137q24 1 49.5 6t47 15.5t37 28.5t20.5 47q4 27 -8.5 42t-33 22.5t-44.5 10t-43 4.5l45 136z" />
<glyph unicode="&#x15f;" d="M787 299q6 42 -15.5 68t-55.5 42t-73.5 25t-67.5 16q-41 10 -85 23t-85.5 31t-79 42.5t-64.5 56.5t-42.5 72.5t-12.5 91.5q3 58 24 105.5t56 85t81 65.5t97 45.5t104 26t104 7.5q79 -1 153.5 -22.5t132 -64.5t91.5 -107.5t33 -151.5l-232 1q1 41 -14 71.5t-40.5 51 t-60 30.5t-73.5 10q-35 0 -73 -7t-70.5 -23.5t-56 -44t-29.5 -67.5q-6 -41 12.5 -66t49.5 -40t67.5 -23t65.5 -14q43 -10 89 -22.5t90 -30t83 -41.5t68 -57t44.5 -75t13.5 -96q-5 -92 -52 -156t-118 -104t-155 -58t-162 -16q-81 1 -159 24.5t-138.5 68.5t-97 112.5 t-35.5 157.5l226 -1q1 -47 18.5 -81t46.5 -56t68 -33t83 -11q35 0 75.5 6t76.5 21.5t62 42.5t32 69zM578 -6l-20 -57q62 -14 93 -57t29 -106q-2 -69 -35.5 -113.5t-84.5 -70t-111.5 -36t-116.5 -11.5l7 137q24 1 49.5 6t47 15.5t37 28.5t20.5 47q4 27 -8.5 42t-33 22.5 t-44.5 10t-43 4.5l45 136z" />
<glyph unicode="&#x160;" d="M843 382q7 55 -13 95t-55 69t-80 49t-88 35q-75 26 -147.5 64t-129 90.5t-89 121.5t-26.5 159q6 100 55 177.5t123 130t166 79t184 24.5q97 -2 178.5 -35t140.5 -91.5t91 -139.5t29 -179h-233q-1 53 -14.5 98t-41 78t-68.5 52t-98 20q-49 1 -96 -12.5t-85.5 -40.5 t-64 -67.5t-31.5 -92.5q-6 -53 16.5 -90.5t60 -64t83 -45t86.5 -32.5q77 -27 148.5 -67t125.5 -94.5t84.5 -126t24.5 -161.5q-7 -103 -56 -179.5t-124 -127t-168 -75t-186 -22.5q-100 2 -188 34.5t-152.5 91.5t-101 143t-33.5 188h234q1 -60 17.5 -108t49 -82t79.5 -53 t108 -20q49 -1 97 11.5t87.5 38.5t66.5 65t34 92zM789 1752l165 134l206 2l-1 -21l-303 -249h-144l-234 248l1 22l192 -1z" />
<glyph unicode="&#x161;" d="M787 299q6 42 -15.5 68t-55.5 42t-73.5 25t-67.5 16q-41 10 -85 23t-85.5 31t-79 42.5t-64.5 56.5t-42.5 72.5t-12.5 91.5q3 58 24 105.5t56 85t81 65.5t97 45.5t104 26t104 7.5q79 -1 153.5 -22.5t132 -64.5t91.5 -107.5t33 -151.5l-232 1q1 41 -14 71.5t-40.5 51 t-60 30.5t-73.5 10q-35 0 -73 -7t-70.5 -23.5t-56 -44t-29.5 -67.5q-6 -41 12.5 -66t49.5 -40t67.5 -23t65.5 -14q43 -10 89 -22.5t90 -30t83 -41.5t68 -57t44.5 -75t13.5 -96q-5 -92 -52 -156t-118 -104t-155 -58t-162 -16q-81 1 -159 24.5t-138.5 68.5t-97 112.5 t-35.5 157.5l226 -1q1 -47 18.5 -81t46.5 -56t68 -33t83 -11q35 0 75.5 6t76.5 21.5t62 42.5t32 69zM709 1409l165 134l206 2l-1 -21l-303 -249h-144l-234 248l1 22l192 -1z" />
<glyph unicode="&#x162;" d="M1259 1258h-433l-218 -1258h-233l218 1258h-431l35 198h1097zM578 9l-20 -57q62 -14 93 -57t29 -106q-2 -69 -35.5 -113.5t-84.5 -70t-111.5 -36t-116.5 -11.5l7 137q24 1 49.5 6t47 15.5t37 28.5t20.5 47q4 27 -8.5 42t-33 22.5t-44.5 10t-43 4.5l45 136z" />
<glyph unicode="&#x163;" d="M745 1344l-46 -262h398l-32 -178h-396l-86 -520q-5 -43 -1 -79.5t20 -64t45.5 -44t76.5 -17.5q58 -2 115 8t114 22l10 -167q-34 -20 -73 -32t-80 -19t-82 -9.5t-80 -1.5q-86 1 -147 32.5t-97.5 84.5t-50 123.5t-5.5 151.5l87 532h-256l31 178h256l46 262h233zM653 3 l-20 -57q62 -14 93 -57t29 -106q-2 -69 -35.5 -113.5t-84.5 -70t-111.5 -36t-116.5 -11.5l7 137q24 1 49.5 6t47 15.5t37 28.5t20.5 47q4 27 -8.5 42t-33 22.5t-44.5 10t-43 4.5l45 136z" />
<glyph unicode="&#x164;" d="M1259 1258h-433l-218 -1258h-233l218 1258h-431l35 198h1097zM787 1723l165 134l206 2l-1 -21l-303 -249h-144l-234 248l1 22l192 -1z" />
<glyph unicode="&#x165;" horiz-adv-x="1242" d="M745 1344l-46 -262h398l-32 -178h-396l-86 -520q-5 -43 -1 -79.5t20 -64t45.5 -44t76.5 -17.5q58 -2 115 8t114 22l10 -167q-34 -20 -73 -32t-80 -19t-82 -9.5t-80 -1.5q-86 1 -147 32.5t-97.5 84.5t-50 123.5t-5.5 151.5l87 532h-256l31 178h256l46 262h233zM1331 1565 q-19 -117 -81.5 -217.5t-153.5 -173.5l-111 80q52 72 88.5 146.5t51.5 162.5l29 163h203z" />
<glyph unicode="&#x166;" d="M945 788h-201l-136 -788h-233l136 788h-214l30 170h214l52 300h-431l35 198h1097l-35 -198h-433l-52 -300h202z" />
<glyph unicode="&#x167;" d="M826 568h-213l-30 -184q-5 -43 -1 -79.5t20 -64t45.5 -44t76.5 -17.5q58 -2 115 8t114 22l10 -167q-34 -20 -73 -32t-80 -19t-82 -9.5t-80 -1.5q-86 1 -147 32.5t-97.5 84.5t-50 123.5t-5.5 151.5l32 196h-202l30 170h200l27 166h-256l31 178h256l46 262h233l-46 -262 h398l-32 -178h-396l-28 -166h216z" />
<glyph unicode="&#x168;" d="M1213 1456l-165 -973q-16 -107 -61 -199.5t-115.5 -161t-164 -106.5t-206.5 -36q-105 2 -183.5 43.5t-128.5 110t-71 158t-10 188.5l168 976h230l-164 -976q-6 -50 -1.5 -103t24 -97t57.5 -73t99 -31q66 -3 116.5 23t86.5 69.5t58.5 99.5t31.5 114l168 974h231z M1177 1848q-4 -45 -20.5 -88.5t-45 -77t-68 -54t-89.5 -20.5q-38 0 -70.5 15t-63.5 33t-63 32.5t-69 13.5q-23 -1 -41 -10t-31 -23.5t-21.5 -33.5t-14.5 -39l-123 28q5 45 22 88.5t45.5 78t68.5 55t90 20.5q37 0 69.5 -15t64 -33t64 -32.5t69.5 -13.5q23 1 41 10t31.5 23.5 t23 33t15.5 38.5z" />
<glyph unicode="&#x169;" d="M754 148q-30 -38 -65.5 -69.5t-75.5 -54t-85 -34.5t-95 -11q-98 2 -160.5 43t-96 106.5t-42 147.5t0.5 166l106 640h234l-107 -643q-5 -45 -6 -91.5t11 -84t42 -62t87 -25.5q85 -3 149.5 32.5t111.5 104.5l134 769h234l-187 -1082h-210zM1095 1513q-4 -45 -20.5 -88.5 t-45 -77t-68 -54t-89.5 -20.5q-38 0 -70.5 15t-63.5 33t-63 32.5t-69 13.5q-23 -1 -41 -10t-31 -23.5t-21.5 -33.5t-14.5 -39l-123 28q5 45 22 88.5t45.5 78t68.5 55t90 20.5q37 0 69.5 -15t64 -33t64 -32.5t69.5 -13.5q23 1 41 10t31.5 23.5t23 33t15.5 38.5z" />
<glyph unicode="&#x16a;" d="M1213 1456l-165 -973q-16 -107 -61 -199.5t-115.5 -161t-164 -106.5t-206.5 -36q-105 2 -183.5 43.5t-128.5 110t-71 158t-10 188.5l168 976h230l-164 -976q-6 -50 -1.5 -103t24 -97t57.5 -73t99 -31q66 -3 116.5 23t86.5 69.5t58.5 99.5t31.5 114l168 974h231z M1157 1617h-706l26 157h705z" />
<glyph unicode="&#x16b;" d="M754 148q-30 -38 -65.5 -69.5t-75.5 -54t-85 -34.5t-95 -11q-98 2 -160.5 43t-96 106.5t-42 147.5t0.5 166l106 640h234l-107 -643q-5 -45 -6 -91.5t11 -84t42 -62t87 -25.5q85 -3 149.5 32.5t111.5 104.5l134 769h234l-187 -1082h-210zM1075 1283h-706l26 157h705z" />
<glyph unicode="&#x16c;" d="M1213 1456l-165 -973q-16 -107 -61 -199.5t-115.5 -161t-164 -106.5t-206.5 -36q-105 2 -183.5 43.5t-128.5 110t-71 158t-10 188.5l168 976h230l-164 -976q-6 -50 -1.5 -103t24 -97t57.5 -73t99 -31q66 -3 116.5 23t86.5 69.5t58.5 99.5t31.5 114l168 974h231z M1144 1857q-5 -68 -32.5 -120.5t-71.5 -89t-102.5 -55t-124.5 -17.5q-64 1 -117 21t-91.5 56.5t-59 88t-19.5 116.5l175 -1q-2 -60 24 -99.5t92 -40.5q33 0 59 10t45 28.5t31.5 44.5t18.5 56z" />
<glyph unicode="&#x16d;" d="M754 148q-30 -38 -65.5 -69.5t-75.5 -54t-85 -34.5t-95 -11q-98 2 -160.5 43t-96 106.5t-42 147.5t0.5 166l106 640h234l-107 -643q-5 -45 -6 -91.5t11 -84t42 -62t87 -25.5q85 -3 149.5 32.5t111.5 104.5l134 769h234l-187 -1082h-210zM1062 1522q-5 -68 -32.5 -120.5 t-71.5 -89t-102.5 -55t-124.5 -17.5q-64 1 -117 21t-91.5 56.5t-59 88t-19.5 116.5l175 -1q-2 -60 24 -99.5t92 -40.5q33 0 59 10t45 28.5t31.5 44.5t18.5 56z" />
<glyph unicode="&#x16e;" d="M1213 1456l-165 -973q-16 -107 -61 -199.5t-115.5 -161t-164 -106.5t-206.5 -36q-105 2 -183.5 43.5t-128.5 110t-71 158t-10 188.5l168 976h230l-164 -976q-6 -50 -1.5 -103t24 -97t57.5 -73t99 -31q66 -3 116.5 23t86.5 69.5t58.5 99.5t31.5 114l168 974h231zM615 1718 q1 44 19.5 82t48.5 66t69.5 43.5t83.5 15.5q40 0 74.5 -15t59.5 -40.5t39 -60.5t13 -75q-1 -44 -19 -81.5t-47 -65t-68 -42.5t-82 -15q-40 0 -75.5 14t-61.5 39t-41 59.5t-13 75.5zM722 1721q-2 -19 3 -36.5t16.5 -31t27.5 -21.5t36 -8q22 0 41 9t33.5 24t23.5 34t12 40 q2 19 -2.5 36.5t-14.5 31.5t-25.5 22.5t-36.5 8.5q-22 0 -41.5 -9t-35 -24t-25.5 -35t-12 -41z" />
<glyph unicode="&#x16f;" d="M754 148q-30 -38 -65.5 -69.5t-75.5 -54t-85 -34.5t-95 -11q-98 2 -160.5 43t-96 106.5t-42 147.5t0.5 166l106 640h234l-107 -643q-5 -45 -6 -91.5t11 -84t42 -62t87 -25.5q85 -3 149.5 32.5t111.5 104.5l134 769h234l-187 -1082h-210zM533 1383q1 44 19.5 82t48.5 66 t69.5 43.5t83.5 15.5q40 0 74.5 -15t59.5 -40.5t39 -60.5t13 -75q-1 -44 -19 -81.5t-47 -65t-68 -42.5t-82 -15q-40 0 -75.5 14t-61.5 39t-41 59.5t-13 75.5zM640 1386q-2 -19 3 -36.5t16.5 -31t27.5 -21.5t36 -8q22 0 41 9t33.5 24t23.5 34t12 40q2 19 -2.5 36.5 t-14.5 31.5t-25.5 22.5t-36.5 8.5q-22 0 -41.5 -9t-35 -24t-25.5 -35t-12 -41z" />
<glyph unicode="&#x170;" d="M1213 1456l-165 -973q-16 -107 -61 -199.5t-115.5 -161t-164 -106.5t-206.5 -36q-105 2 -183.5 43.5t-128.5 110t-71 158t-10 188.5l168 976h230l-164 -976q-6 -50 -1.5 -103t24 -97t57.5 -73t99 -31q66 -3 116.5 23t86.5 69.5t58.5 99.5t31.5 114l168 974h231z M1107 1859h268l-344 -266h-209zM771 1859h251l-290 -266h-195z" />
<glyph unicode="&#x171;" d="M754 148q-30 -38 -65.5 -69.5t-75.5 -54t-85 -34.5t-95 -11q-98 2 -160.5 43t-96 106.5t-42 147.5t0.5 166l106 640h234l-107 -643q-5 -45 -6 -91.5t11 -84t42 -62t87 -25.5q85 -3 149.5 32.5t111.5 104.5l134 769h234l-187 -1082h-210zM1025 1524h268l-344 -266h-209z M689 1524h251l-290 -266h-195z" />
<glyph unicode="&#x172;" d="M1213 1456l-165 -973q-12 -83 -42.5 -157.5t-76 -136.5t-106.5 -108t-135 -72q-41 -28 -71 -66.5t-35 -89.5q-4 -29 8 -45.5t43 -17.5q23 -1 45.5 6.5t44.5 15.5l28 -143q-40 -22 -84.5 -32t-89.5 -9q-43 0 -78 14t-60 39t-38 60t-11 78q2 48 20.5 88.5t47.5 75.5 q-94 10 -164.5 54t-115 111t-63 152.5t-7.5 179.5l168 976h230l-164 -976q-6 -50 -1.5 -103t24 -97t57.5 -73t99 -31q66 -3 116.5 23t86.5 69.5t58.5 99.5t31.5 114l168 974h231z" />
<glyph unicode="&#x173;" d="M928 0l6 -3q-31 -15 -62.5 -34t-57.5 -43.5t-44 -55.5t-22 -68q-4 -29 8 -45.5t43 -17.5q23 -1 45.5 6.5t44.5 15.5l28 -143q-40 -22 -84.5 -32t-89.5 -9q-43 0 -78 14t-60 39t-38 60t-11 78q1 43 16 80t40 69t57 59t67 49l18 129q-30 -38 -65.5 -69.5t-75.5 -54 t-85 -34.5t-95 -11q-98 2 -160.5 43t-96 106.5t-42 147.5t0.5 166l106 640h234l-107 -643q-5 -45 -6 -91.5t11 -84t42 -62t87 -25.5q85 -3 149.5 32.5t111.5 104.5l134 769h234l-187 -1082h-16z" />
<glyph unicode="&#x174;" d="M824 507l250 949h221l-408 -1456h-224l-2 964l-303 -964h-224l47 1456h216l-47 -942l291 942h183v-949zM1089 1625l-3 -29l-182 1l-120 136l-169 -135l-191 -1l3 30l293 239h134z" />
<glyph unicode="&#x175;" d="M305 356l-8 -71l24 71l277 726h153l24 -734l-3 -74l27 90l225 718h216l-393 -1082h-196l-31 724l1 17l-6 -17l-282 -724h-196l-16 1082l200 1zM1044 1282l-3 -29l-182 1l-120 136l-169 -135l-191 -1l3 30l293 239h134z" />
<glyph unicode="&#x176;" d="M620 762l415 694h271l-610 -945l-90 -511h-228l93 541l-274 915h251zM1111 1625l-3 -29l-182 1l-120 136l-169 -135l-191 -1l3 30l293 239h134z" />
<glyph unicode="&#x177;" d="M536 421l15 -115l429 776h268l-746 -1246q-32 -55 -71 -105t-86.5 -88t-105 -60t-125.5 -22q-33 1 -65.5 6.5t-64.5 13.5l52 185q22 -2 44 -4.5t43 -1.5q33 1 60.5 16.5t50 38.5t41.5 50.5t36 51.5l99 146l-265 1019h248zM1072 1282l-3 -29l-182 1l-120 136l-169 -135 l-191 -1l3 30l293 239h134z" />
<glyph unicode="&#x178;" d="M620 762l415 694h271l-610 -945l-90 -511h-228l93 541l-274 915h251zM445 1712q1 52 36.5 86t87.5 36q25 0 47.5 -8t39 -23.5t26 -37t9.5 -47.5t-10 -48t-27 -38t-39.5 -25t-47.5 -10q-25 0 -47.5 8t-39 23t-26 36.5t-9.5 47.5zM886 1711q1 52 36.5 85.5t86.5 35.5 q25 0 47.5 -8t39 -23t26 -36.5t9.5 -47.5q-1 -52 -36.5 -86t-87.5 -36q-25 0 -47.5 8t-39 23.5t-25.5 37t-9 47.5z" />
<glyph unicode="&#x179;" d="M315 196h708l-32 -196h-987l25 171l855 1087h-679l31 198h961l-25 -167zM886 1815h282l-312 -273h-192z" />
<glyph unicode="&#x17a;" d="M385 191h628l-30 -191h-942l27 167l705 721h-583l31 194h903l-25 -162zM844 1480h282l-312 -273h-192z" />
<glyph unicode="&#x17b;" d="M315 196h708l-32 -196h-987l25 171l855 1087h-679l31 198h961l-25 -167zM666 1704q0 28 10 52.5t27.5 42t41.5 27.5t53 11q28 1 52 -8t42 -25.5t27.5 -40t9.5 -51.5q0 -58 -37.5 -94.5t-94.5 -37.5q-28 -1 -52 8t-41.5 25.5t-27.5 39.5t-10 51z" />
<glyph unicode="&#x17c;" d="M385 191h628l-30 -191h-942l27 167l705 721h-583l31 194h903l-25 -162zM624 1369q0 28 10 52.5t27.5 42t41.5 27.5t53 11q28 1 52 -8t42 -25.5t27.5 -40t9.5 -51.5q0 -58 -37.5 -94.5t-94.5 -37.5q-28 -1 -52 8t-41.5 25.5t-27.5 39.5t-10 51z" />
<glyph unicode="&#x17d;" d="M315 196h708l-32 -196h-987l25 171l855 1087h-679l31 198h961l-25 -167zM792 1723l165 134l206 2l-1 -21l-303 -249h-144l-234 248l1 22l192 -1z" />
<glyph unicode="&#x17e;" d="M385 191h628l-30 -191h-942l27 167l705 721h-583l31 194h903l-25 -162zM750 1388l165 134l206 2l-1 -21l-303 -249h-144l-234 248l1 22l192 -1z" />
<glyph unicode="&#x17f;" d="M312 0l190 1108q15 107 57.5 195t109.5 150.5t157.5 96t201.5 32.5q39 -1 77.5 -7.5t76.5 -14.5l-45 -182q-42 11 -88 13q-66 1 -119.5 -19.5t-93 -58t-65 -90t-35.5 -114.5l-190 -1109h-234z" />
<glyph unicode="&#x192;" d="M935 904h-194l-143 -935q-11 -89 -43.5 -164.5t-86 -129.5t-128 -84t-168.5 -29q-91 1 -175 39l34 188q30 -17 67 -26.5t72 -10.5q47 0 81 18.5t57 49t36.5 69.5t19.5 80l143 935h-160l27 178h160l11 87q12 99 53 176.5t105 131t148.5 80.5t183.5 25q48 -1 94 -13t92 -28 l-39 -187q-31 17 -63.5 24.5t-67.5 8.5q-109 2 -181.5 -53.5t-89.5 -164.5l-12 -87h195z" />
<glyph unicode="&#x1a0;" d="M1112 635q-13 -79 -37.5 -159t-61.5 -153.5t-87.5 -137t-113.5 -110t-140.5 -72t-168.5 -23.5q-87 2 -153.5 31t-115 77.5t-79.5 112t-47 135.5t-18 148.5t8 149.5l29 186q12 78 36.5 158t61 153.5t85.5 137.5t112 110.5t139 72.5t167 24q112 -3 191 -48.5t130 -119.5 q30 11 51 33t35 50t22 60t14 65l175 2q-11 -131 -67.5 -220.5t-164.5 -125.5q27 -83 33 -173.5t-6 -178.5zM906 823q5 40 8.5 88.5t0 98t-15 96t-35 83t-61 59.5t-93.5 25q-59 2 -105.5 -17.5t-82.5 -54t-62.5 -80.5t-45.5 -97t-31.5 -103t-20.5 -99l-29 -189 q-5 -39 -9 -87.5t-1.5 -98t13.5 -96.5t33.5 -84t59.5 -60.5t93 -25.5q59 -2 106.5 17.5t84 54t64 81t47.5 97.5t32.5 103.5t20.5 99.5z" />
<glyph unicode="&#x1a1;" d="M95 544q14 112 58.5 214.5t117 179.5t171 122t219.5 42q95 -2 167 -34.5t123 -87.5q29 13 50 34.5t35.5 48.5t24 58.5t15.5 64.5l178 1q-12 -125 -68.5 -209.5t-154.5 -123.5q28 -66 37.5 -142.5t1.5 -157.5l-2 -22q-14 -112 -59 -213.5t-117.5 -178t-171 -120.5 t-218.5 -41q-114 3 -196.5 49t-133.5 121t-70.5 172t-8.5 202zM326 523q-4 -37 -4.5 -77t5.5 -79t19 -74t36 -62t56.5 -44t80.5 -18q75 -3 130.5 30t93.5 86t60.5 119t30.5 129l2 20q6 55 3 117t-22.5 114.5t-61 88t-111.5 37.5q-75 2 -131 -31t-94 -86.5t-60.5 -119.5 t-30.5 -129z" />
<glyph unicode="&#x1af;" d="M1217 1456l-33 -190q48 7 80.5 27t53.5 51t33 73t20 92l181 1q-17 -191 -113.5 -287.5t-279.5 -107.5l-107 -632q-16 -107 -61 -199.5t-115.5 -161t-164 -106.5t-206.5 -36q-105 2 -183.5 43.5t-128.5 110t-71 158t-10 188.5l168 976h230l-164 -976q-6 -50 -1.5 -103 t24 -97t57.5 -73t99 -31q66 -3 116.5 23t86.5 69.5t58.5 99.5t31.5 114l168 974h231z" />
<glyph unicode="&#x1b0;" d="M738 148q-30 -38 -65.5 -69.5t-75.5 -54t-85 -34.5t-95 -11q-98 2 -160.5 43t-96 106.5t-42 147.5t0.5 166l106 640h234l-107 -643q-5 -45 -6 -91.5t11 -84t42 -62t87 -25.5q85 -3 149.5 32.5t111.5 104.5l134 769h234l-25 -141q65 26 98 86t47 146l180 1 q-17 -179 -106.5 -275.5t-246.5 -119.5l-134 -779h-210z" />
<glyph unicode="&#x1f0;" d="M359 1082h539l-188 -1099q-14 -102 -54 -181t-103 -132.5t-147.5 -81t-187.5 -26.5q-50 0 -98.5 5t-97.5 13l35 194q81 -15 163 -15q109 -2 174 58t82 165l153 901h-305zM821 1369l165 134l206 2l-1 -21l-303 -249h-144l-234 248l1 22l192 -1z" />
<glyph unicode="&#x1fa;" d="M787 338h-440l-156 -338h-249l712 1456h206l197 -1456h-234zM442 543h322l-60 568zM967 2110l249 -1l-271 -193h-170zM622 1689q0 39 15.5 72.5t41 58t59.5 39t72 14.5q36 0 67.5 -13.5t54.5 -36.5t36 -54.5t13 -67.5q0 -38 -14.5 -71t-39.5 -57t-58.5 -38t-71.5 -14 q-36 0 -67.5 12.5t-55.5 35t-38 53t-14 67.5zM719 1690q1 -32 15.5 -56.5t52.5 -24.5q18 0 35 7.5t30 20.5t21.5 29t11.5 34q5 32 -11.5 57.5t-51.5 26.5q-21 0 -38 -8t-29.5 -21t-21.5 -30t-14 -35z" />
<glyph unicode="&#x1fb;" d="M726 0q-8 26 -9 52t0 53q-66 -59 -143.5 -92.5t-167.5 -31.5q-68 1 -129 23t-106 62.5t-70 98t-21 130.5q4 71 28.5 126t63.5 95.5t90.5 68.5t109.5 45.5t119.5 24.5t122.5 7l177 -1l12 73q6 44 -4.5 78.5t-34.5 58t-59 36t-78 13.5q-38 1 -72 -7.5t-62 -27t-47 -46.5 t-27 -67l-233 -1q7 86 52 149t112 104t147 60.5t157 18.5q84 -2 157.5 -26.5t126.5 -71.5t80.5 -116t18.5 -159l-79 -483q-9 -57 -12 -115t15 -114l-2 -18h-233zM464 172q80 -2 150 34t119 99l37 204l-135 1q-49 0 -102 -8t-99 -28.5t-78 -57.5t-39 -95q-5 -37 4.5 -64.5 t29.5 -46t49 -28t64 -10.5zM892 1788l249 -1l-271 -193h-170zM547 1367q0 39 15.5 72.5t41 58t59.5 39t72 14.5q36 0 67.5 -13.5t54.5 -36.5t36 -54.5t13 -67.5q0 -38 -14.5 -71t-39.5 -57t-58.5 -38t-71.5 -14q-36 0 -67.5 12.5t-55.5 35t-38 53t-14 67.5zM644 1368 q1 -32 15.5 -56.5t52.5 -24.5q18 0 35 7.5t30 20.5t21.5 29t11.5 34q5 32 -11.5 57.5t-51.5 26.5q-21 0 -38 -8t-29.5 -21t-21.5 -30t-14 -35z" />
<glyph unicode="&#x1fc;" d="M1050 0h-522l59 340h-247l-162 -340h-251l758 1456h597l-35 -194h-278l-71 -412h249l-35 -194h-248l-80 -463h300zM624 553l104 597l-287 -597h183zM981 1823h282l-312 -273h-192z" />
<glyph unicode="&#x1fd;" d="M763 -19q-38 0 -75.5 7.5t-70.5 22.5t-61 39t-48 58q-51 -57 -113.5 -93t-142.5 -35q-67 1 -117.5 24.5t-84 64t-49 95.5t-11.5 119q6 97 46.5 165.5t105 112t147 63t170.5 18.5h29l24 133q3 21 3 44.5t-7 43.5t-22 33t-42 14q-29 1 -50 -10t-35.5 -29t-23 -41t-12.5 -48 l-224 9q7 73 35.5 131.5t75 99t108.5 62t135 20.5q62 -2 120 -21t100 -67q52 42 109.5 64.5t124.5 20.5q80 -2 135 -36t87 -88t43 -122.5t4 -139.5l-38 -243h-461l-12 -86q-5 -45 0 -83.5t23 -67t50.5 -45t82.5 -17.5q54 -1 100 15.5t94 39.5l34 -170q-29 -23 -64 -37.5 t-72.5 -23.5t-75.5 -12.5t-74 -3.5zM698 641l251 1l17 123q2 25 -0.5 50.5t-13 46.5t-29.5 34.5t-49 14.5q-43 1 -72 -18t-47.5 -49.5t-29 -67t-16.5 -70.5zM314 161q29 0 54 14t48 30l54 273h-18q-43 -2 -82.5 -16.5t-70.5 -40.5t-51.5 -62t-26.5 -80q-6 -49 17.5 -83.5 t75.5 -34.5zM860 1502h282l-312 -273h-192z" />
<glyph unicode="&#x1fe;" d="M1108 635q-13 -79 -37.5 -159t-61.5 -153.5t-87.5 -137t-113.5 -110t-140.5 -72t-168.5 -23.5q-86 2 -151.5 29.5t-113.5 75.5l-132 -180h-176l222 302q-23 47 -37 99.5t-20 107t-5.5 110.5t8.5 110l29 186q12 78 36.5 158t61 153.5t85.5 137.5t112 110.5t139 72.5 t167 24q89 -2 156.5 -32t117.5 -80l113 154h177l-204 -278q22 -47 35.5 -98.5t20 -105.5t5.5 -108.5t-8 -107.5zM329 633q-6 -42 -9.5 -91.5t-0.5 -101.5l545 742q-23 39 -61.5 64t-96.5 27q-59 2 -105.5 -17.5t-82.5 -54t-62.5 -80.5t-45.5 -97t-31.5 -103t-20.5 -99z M902 823q5 39 8.5 86.5t0.5 95.5l-545 -740q23 -37 59.5 -59.5t92.5 -24.5q59 -2 106.5 17.5t84 54t64 81t47.5 97.5t32.5 103.5t20.5 99.5zM886 1885h282l-312 -273h-192z" />
<glyph unicode="&#x1ff;" d="M99 544q14 112 58.5 214.5t117 179.5t171 122t219.5 42q55 -2 102.5 -14t87.5 -32l102 156h152l-152 -234q36 -39 61 -87t39.5 -102.5t18.5 -114t-2 -120.5l-2 -22q-14 -112 -59 -213.5t-117.5 -178t-171 -120.5t-218.5 -41q-98 3 -175 37l-100 -154h-152l147 226 q-39 39 -66.5 87.5t-43.5 104.5t-21 117.5t2 125.5zM330 523q-7 -58 -3.5 -122t26.5 -117l390 599q-19 12 -42.5 19t-52.5 8q-75 2 -131 -31t-94 -86.5t-60.5 -119.5t-30.5 -129zM840 553q5 53 3 111t-19 110l-382 -587q35 -17 81 -18q75 -3 130.5 30t93.5 86t60.5 119 t30.5 129zM781 1498h282l-312 -273h-192z" />
<glyph unicode="&#x218;" d="M843 382q7 55 -13 95t-55 69t-80 49t-88 35q-75 26 -147.5 64t-129 90.5t-89 121.5t-26.5 159q6 100 55 177.5t123 130t166 79t184 24.5q97 -2 178.5 -35t140.5 -91.5t91 -139.5t29 -179h-233q-1 53 -14.5 98t-41 78t-68.5 52t-98 20q-49 1 -96 -12.5t-85.5 -40.5 t-64 -67.5t-31.5 -92.5q-6 -53 16.5 -90.5t60 -64t83 -45t86.5 -32.5q77 -27 148.5 -67t125.5 -94.5t84.5 -126t24.5 -161.5q-7 -103 -56 -179.5t-124 -127t-168 -75t-186 -22.5q-100 2 -188 34.5t-152.5 91.5t-101 143t-33.5 188h234q1 -60 17.5 -108t49 -82t79.5 -53 t108 -20q49 -1 97 11.5t87.5 38.5t66.5 65t34 92zM609 -139q-12 -103 -62.5 -194t-130.5 -157l-111 79q43 62 73.5 127.5t41.5 140.5l11 72h186z" />
<glyph unicode="&#x219;" d="M787 299q6 42 -15.5 68t-55.5 42t-73.5 25t-67.5 16q-41 10 -85 23t-85.5 31t-79 42.5t-64.5 56.5t-42.5 72.5t-12.5 91.5q3 58 24 105.5t56 85t81 65.5t97 45.5t104 26t104 7.5q79 -1 153.5 -22.5t132 -64.5t91.5 -107.5t33 -151.5l-232 1q1 41 -14 71.5t-40.5 51 t-60 30.5t-73.5 10q-35 0 -73 -7t-70.5 -23.5t-56 -44t-29.5 -67.5q-6 -41 12.5 -66t49.5 -40t67.5 -23t65.5 -14q43 -10 89 -22.5t90 -30t83 -41.5t68 -57t44.5 -75t13.5 -96q-5 -92 -52 -156t-118 -104t-155 -58t-162 -16q-81 1 -159 24.5t-138.5 68.5t-97 112.5 t-35.5 157.5l226 -1q1 -47 18.5 -81t46.5 -56t68 -33t83 -11q35 0 75.5 6t76.5 21.5t62 42.5t32 69zM571 -139q-12 -103 -62.5 -194t-130.5 -157l-111 79q43 62 73.5 127.5t41.5 140.5l11 72h186z" />
<glyph unicode="&#x21a;" d="M1259 1258h-433l-218 -1258h-233l218 1258h-431l35 198h1097zM571 -123q-12 -103 -62.5 -194t-130.5 -157l-111 79q43 62 73.5 127.5t41.5 140.5l11 72h186z" />
<glyph unicode="&#x21b;" d="M745 1344l-46 -262h398l-32 -178h-396l-86 -520q-5 -43 -1 -79.5t20 -64t45.5 -44t76.5 -17.5q58 -2 115 8t114 22l10 -167q-34 -20 -73 -32t-80 -19t-82 -9.5t-80 -1.5q-86 1 -147 32.5t-97.5 84.5t-50 123.5t-5.5 151.5l87 532h-256l31 178h256l46 262h233zM646 -129 q-12 -103 -62.5 -194t-130.5 -157l-111 79q43 62 73.5 127.5t41.5 140.5l11 72h186z" />
<glyph unicode="&#x237;" d="M359 1082h539l-188 -1099q-14 -102 -54 -181t-103 -132.5t-147.5 -81t-187.5 -26.5q-50 0 -98.5 5t-97.5 13l35 194q81 -15 163 -15q109 -2 174 58t82 165l153 901h-305z" />
<glyph unicode="&#x259;" d="M662 1102q114 -2 199 -45.5t139 -116t76.5 -168.5t12.5 -203l-4 -42q-13 -107 -58.5 -207t-118 -176.5t-169 -121t-211.5 -41.5q-107 3 -185.5 41t-127.5 103.5t-68 153t-6 189.5l21 141h698q4 57 -6 110.5t-37 94.5t-71 67t-108 28q-90 3 -170.5 -22t-156.5 -70l-63 159 q42 36 91.5 60.5t103.5 39.5t110 21t109 5zM544 171q58 -2 103.5 21.5t81 61t62 85t44.5 94.5l-467 1l-5 -28q-8 -49 0 -91.5t31 -74t60.5 -50t89.5 -19.5z" />
<glyph unicode="&#x2bc;" d="M878 1399q-19 -117 -81.5 -217.5t-153.5 -173.5l-111 80q52 72 88.5 146.5t51.5 162.5l29 163h203z" />
<glyph unicode="&#x2c6;" d="M925 1276l-3 -29l-182 1l-120 136l-169 -135l-191 -1l3 30l293 239h134z" />
<glyph unicode="&#x2c7;" d="M730 1382l165 134l206 2l-1 -21l-303 -249h-144l-234 248l1 22l192 -1z" />
<glyph unicode="&#x2d8;" d="M1043 1450q-5 -68 -32.5 -120.5t-71.5 -89t-102.5 -55t-124.5 -17.5q-64 1 -117 21t-91.5 56.5t-59 88t-19.5 116.5l175 -1q-2 -60 24 -99.5t92 -40.5q33 0 59 10t45 28.5t31.5 44.5t18.5 56z" />
<glyph unicode="&#x2d9;" d="M599 1355q0 28 10 52.5t27.5 42t41.5 27.5t53 11q28 1 52 -8t42 -25.5t27.5 -40t9.5 -51.5q0 -58 -37.5 -94.5t-94.5 -37.5q-28 -1 -52 8t-41.5 25.5t-27.5 39.5t-10 51z" />
<glyph unicode="&#x2da;" d="M508 1261q1 44 19.5 82t48.5 66t69.5 43.5t83.5 15.5q40 0 74.5 -15t59.5 -40.5t39 -60.5t13 -75q-1 -44 -19 -81.5t-47 -65t-68 -42.5t-82 -15q-40 0 -75.5 14t-61.5 39t-41 59.5t-13 75.5zM615 1264q-2 -19 3 -36.5t16.5 -31t27.5 -21.5t36 -8q22 0 41 9t33.5 24 t23.5 34t12 40q2 19 -2.5 36.5t-14.5 31.5t-25.5 22.5t-36.5 8.5q-22 0 -41.5 -9t-35 -24t-25.5 -35t-12 -41z" />
<glyph unicode="&#x2db;" d="M627 -3q-31 -15 -62.5 -34t-57.5 -43.5t-44 -55.5t-22 -68q-4 -29 8 -45.5t43 -17.5q23 -1 45.5 6.5t44.5 15.5l28 -143q-40 -22 -84.5 -32t-89.5 -9q-43 0 -78 14t-60 39t-38 60t-11 78q1 54 25 99.5t60.5 82.5t81.5 66.5t89 50.5z" />
<glyph unicode="&#x2dc;" d="M955 1504q-4 -45 -20.5 -88.5t-45 -77t-68 -54t-89.5 -20.5q-38 0 -70.5 15t-63.5 33t-63 32.5t-69 13.5q-23 -1 -41 -10t-31 -23.5t-21.5 -33.5t-14.5 -39l-123 28q5 45 22 88.5t45.5 78t68.5 55t90 20.5q37 0 69.5 -15t64 -33t64 -32.5t69.5 -13.5q23 1 41 10 t31.5 23.5t23 33t15.5 38.5z" />
<glyph unicode="&#x2dd;" d="M892 1518h268l-344 -266h-209zM556 1518h251l-290 -266h-195z" />
<glyph unicode="&#x2f3;" d="M274 -234q1 33 14.5 62t36.5 50.5t53 34t63 12.5q31 0 58 -11t47 -30.5t31 -47t10 -58.5q-1 -33 -14 -61t-34.5 -49t-50.5 -33t-62 -12q-31 0 -59 10t-49 29t-33 45.5t-11 58.5zM373 -231q2 -22 11.5 -39.5t36.5 -17.5q25 1 44.5 20t23.5 43q3 21 -8.5 40.5t-35.5 19.5 q-15 0 -26.5 -5.5t-20 -15t-14.5 -21.5t-11 -24z" />
<glyph unicode="&#x300;" d="M-379 1210h-137l-132 350h191z" />
<glyph unicode="&#x301;" d="M-343 1561h209l-252 -352h-151z" />
<glyph unicode="&#x303;" d="M-44 1504q-4 -45 -20.5 -88.5t-45 -77t-68 -54t-89.5 -20.5q-38 0 -70.5 15t-63.5 33t-63 32.5t-69 13.5q-23 -1 -41 -10t-31 -23.5t-21.5 -33.5t-14.5 -39l-123 28q5 45 22 88.5t45.5 78t68.5 55t90 20.5q37 0 69.5 -15t64 -33t64 -32.5t69.5 -13.5q23 1 41 10 t31.5 23.5t23 33t15.5 38.5z" />
<glyph unicode="&#x309;" d="M-551 1253l14 147q19 2 44 4.5t48 9.5t40 21t20 39q4 25 -10.5 38.5t-36.5 19.5t-46 7t-40 1l17 122q43 -1 96.5 -8.5t100 -27.5t77 -56t28.5 -94q-1 -36 -14.5 -62.5t-36 -45t-51.5 -29.5t-61 -17l-11 -70z" />
<glyph unicode="&#x30f;" d="M-368 1252h-216l-245 266h270zM-81 1252h-200l-191 266h254z" />
<glyph unicode="&#x323;" d="M-859 -234q0 30 10.5 54t29.5 41.5t44 27.5t54 11q28 1 53.5 -8t44 -25.5t29 -40t10.5 -52.5q0 -30 -11 -54t-29.5 -41.5t-44 -27t-53.5 -9.5q-28 -1 -53 7.5t-43.5 24.5t-29.5 39.5t-11 52.5z" />
<glyph unicode="&#x384;" d="M797 1665h246l-261 -398h-122z" />
<glyph unicode="&#x385;" d="M817 1767h247l-195 -295h-149zM383 1350q0 28 10 51t27 40.5t40.5 27t50.5 10.5t50.5 -8t40.5 -25t27 -38.5t10 -49.5t-10 -50t-27 -40t-40.5 -26.5t-50.5 -10.5q-26 -1 -49.5 7.5t-41 24t-27.5 38t-10 49.5zM900 1351q0 28 10 51t27 40t41 27t51 10q26 1 49 -7.5 t40.5 -24.5t27.5 -38.5t10 -49.5t-10 -50.5t-27 -40.5t-40.5 -26.5t-50.5 -10.5t-50 7.5t-40.5 24.5t-27.5 38.5t-10 49.5z" />
<glyph unicode="&#x386;" d="M787 338h-440l-156 -338h-249l712 1456h206l197 -1456h-234zM442 543h322l-60 568zM376 1665h246l-261 -398h-122z" />
<glyph unicode="&#x387;" d="M562 712q0 29 10.5 54t28.5 43.5t43 29t54 11.5t54 -8.5t43 -26.5t28 -41.5t10 -53.5q0 -30 -10.5 -54.5t-28.5 -42.5t-43 -28.5t-55 -11.5q-29 -1 -53.5 8t-42.5 26.5t-28 41.5t-10 53z" />
<glyph unicode="&#x388;" horiz-adv-x="1302" d="M1082 653h-581l-79 -457h680l-34 -196h-915l252 1456h909l-35 -198h-673l-72 -411h582zM191 1666h246l-261 -398h-122z" />
<glyph unicode="&#x389;" horiz-adv-x="1302" d="M1056 0h-228l113 650h-479l-113 -650h-228l253 1456h228l-106 -609h478l106 609h229zM194 1665h246l-261 -398h-122z" />
<glyph unicode="&#x38a;" horiz-adv-x="1302" d="M424 1456h841l-35 -199h-305l-184 -1059h306l-35 -198h-841l35 198h298l184 1059h-299zM209 1667h246l-261 -398h-122z" />
<glyph unicode="&#x38c;" horiz-adv-x="1222" d="M1130 635q-13 -79 -37.5 -159t-61.5 -153.5t-87 -137t-114 -110t-141 -72t-168 -23.5q-87 2 -153.5 31t-115 77.5t-79.5 112t-47 135.5t-18 148.5t8 149.5l29 186q12 78 36.5 158t61 153.5t85.5 137.5t112 110.5t139 72.5t167 24q87 -2 154.5 -31t117 -77t81.5 -112 t48.5 -136.5t19 -149t-7.5 -150.5zM924 823q5 40 8.5 88.5t0 98t-15 96t-35 83t-61 59.5t-93.5 25q-59 2 -105.5 -17.5t-82.5 -54t-62.5 -80.5t-45.5 -97t-31.5 -103t-20.5 -99l-29 -189q-6 -39 -9.5 -87.5t-1 -98t13.5 -96.5t33.5 -84t59.5 -60.5t93 -25.5 q59 -2 106.5 17.5t84 54t64 81t47.5 97.5t32.5 103.5t20.5 99.5zM193 1665h246l-261 -398h-122z" />
<glyph unicode="&#x38e;" horiz-adv-x="1302" d="M720 762l415 694h271l-610 -945l-90 -511h-228l93 541l-274 915h251zM124 1665h246l-261 -398h-122z" />
<glyph unicode="&#x38f;" horiz-adv-x="1222" d="M610 237q55 16 97 49t73.5 77.5t54 97.5t38 108.5t25 110t16.5 103.5l9 67q4 38 7 84.5t0 93.5t-13 92t-32.5 80t-58.5 57.5t-89 24.5q-58 2 -104 -16.5t-82 -51.5t-62.5 -77t-45 -93.5t-30.5 -100t-18 -96.5l-8 -65q-4 -36 -10 -85.5t-9 -104.5t0 -111t17 -104.5 t41.5 -85.5t74.5 -53l-38 -238h-451l35 194l253 3q-102 125 -141 276t-19 310l8 64q16 118 63.5 232t124 203.5t181.5 143t237 50.5q84 -2 150.5 -29t116 -72.5t82.5 -106.5t51.5 -130t22.5 -143.5t-5 -147.5l-9 -64q-13 -90 -43 -175t-76 -161.5t-108 -141.5t-139 -114 l261 3l-35 -194h-451zM214 1665h246l-261 -398h-122z" />
<glyph unicode="&#x390;" d="M257 1082h544l-123 -739q-4 -36 -2.5 -66t13 -52t35 -34t63.5 -12q41 0 78.5 13t72.5 32l28 -171q-56 -39 -115.5 -57t-128.5 -17q-85 2 -142 30t-90.5 76.5t-44 115t-2.5 146.5l89 536h-310zM773 1694h247l-195 -295h-149zM339 1277q0 28 10 51t27 40.5t40.5 27 t50.5 10.5t50.5 -8t40.5 -25t27 -38.5t10 -49.5t-10 -50t-27 -40t-40.5 -26.5t-50.5 -10.5q-26 -1 -49.5 7.5t-41 24t-27.5 38t-10 49.5zM856 1278q0 28 10 51t27 40t41 27t51 10q26 1 49 -7.5t40.5 -24.5t27.5 -38.5t10 -49.5t-10 -50.5t-27 -40.5t-40.5 -26.5t-50.5 -10.5 t-50 7.5t-40.5 24.5t-27.5 38.5t-10 49.5z" />
<glyph unicode="&#x391;" d="M787 338h-440l-156 -338h-249l712 1456h206l197 -1456h-234zM442 543h322l-60 568z" />
<glyph unicode="&#x392;" d="M39 0l253 1456l438 -1q88 -2 170 -25.5t143 -70t94.5 -118.5t25.5 -171q-5 -60 -27.5 -109t-58 -87.5t-82 -68.5t-98.5 -52q51 -19 88 -52t60 -75.5t32.5 -92t6.5 -101.5q-8 -109 -56.5 -190.5t-124 -135.5t-170.5 -80.5t-196 -25.5h-498zM389 660l-81 -464l242 -2 q55 1 106 17t91.5 46t68 74t35.5 101q6 49 -3.5 90t-33.5 70.5t-62 47t-87 19.5zM420 843l212 -2q51 1 100.5 14.5t89.5 40.5t67.5 67.5t35.5 95.5q7 51 -6 87.5t-41 60.5t-67.5 36t-85.5 14l-232 1z" />
<glyph unicode="&#x393;" d="M1161 1262h-656l-219 -1262h-235l252 1456h892z" />
<glyph unicode="&#x395;" d="M982 653h-581l-79 -457h680l-34 -196h-915l252 1456h909l-35 -198h-673l-72 -411h582z" />
<glyph unicode="&#x396;" d="M315 196h708l-32 -196h-987l25 171l855 1087h-679l31 198h961l-25 -167z" />
<glyph unicode="&#x397;" d="M956 0h-228l113 650h-479l-113 -650h-228l253 1456h228l-106 -609h478l106 609h229z" />
<glyph unicode="&#x398;" d="M813 635h-413l34 192h413zM1116 635q-13 -79 -37.5 -159t-61.5 -153.5t-87 -137t-113.5 -110t-141 -72t-168.5 -23.5q-87 2 -153.5 31t-115 77.5t-79.5 112t-47 135.5t-18 148.5t8 149.5l29 186q12 78 36.5 158t61 153.5t85.5 137.5t112 110.5t139 72.5t167 24 q88 -2 155 -31t116.5 -77t81.5 -112t48.5 -136.5t19 -149t-7.5 -150.5zM910 823q5 40 8.5 88.5t0 98t-15 96t-35 83t-61 59.5t-93.5 25q-59 2 -105.5 -17.5t-82.5 -54t-62.5 -80.5t-45.5 -97t-31.5 -103t-20.5 -99l-29 -189q-6 -39 -9.5 -87.5t-1 -98t13.5 -96.5t33.5 -84 t59.5 -60.5t93 -25.5q59 -2 106.5 17.5t84 54t64 81t47.5 97.5t32.5 103.5t20.5 99.5z" />
<glyph unicode="&#x399;" d="M324 1456h841l-35 -199h-305l-184 -1059h306l-35 -198h-841l35 198h298l184 1059h-299z" />
<glyph unicode="&#x39a;" d="M542 630l-189 -181l-78 -449h-237l253 1456h237l-117 -670l166 180l442 490h301l-601 -649l359 -807h-267z" />
<glyph unicode="&#x39b;" d="M690 1115l-514 -1115h-250l705 1456h223l199 -1456h-235z" />
<glyph unicode="&#x39c;" d="M566 1456l65 -626l303 626h294l-253 -1456h-220l88 510l120 609l-331 -679h-123l-81 683l-96 -633l-85 -490h-221l253 1456h287z" />
<glyph unicode="&#x39d;" d="M955 0h-230l-289 1011l-176 -1011h-238l253 1456h232l286 -1008l178 1008h237z" />
<glyph unicode="&#x39e;" d="M57 193h929l-34 -193h-929zM262 843h739l-34 -189h-738zM286 1456h897l-35 -194h-896z" />
<glyph unicode="&#x39f;" d="M1110 635q-13 -79 -37.5 -159t-61.5 -153.5t-87 -137t-114 -110t-141 -72t-168 -23.5q-87 2 -153.5 31t-115 77.5t-79.5 112t-47 135.5t-18 148.5t8 149.5l29 186q12 78 36.5 158t61 153.5t85.5 137.5t112 110.5t139 72.5t167 24q87 -2 154.5 -31t117 -77t81.5 -112 t48.5 -136.5t19 -149t-7.5 -150.5zM904 823q5 40 8.5 88.5t0 98t-15 96t-35 83t-61 59.5t-93.5 25q-59 2 -105.5 -17.5t-82.5 -54t-62.5 -80.5t-45.5 -97t-31.5 -103t-20.5 -99l-29 -189q-6 -39 -9.5 -87.5t-1 -98t13.5 -96.5t33.5 -84t59.5 -60.5t93 -25.5 q59 -2 106.5 17.5t84 54t64 81t47.5 97.5t32.5 103.5t20.5 99.5z" />
<glyph unicode="&#x3a0;" d="M946 0h-235l219 1262h-445l-219 -1262h-235l253 1456h915z" />
<glyph unicode="&#x3a1;" d="M389 558l-97 -558h-235l253 1456l460 -1q97 -3 178 -35t138 -90t86 -138.5t20 -180.5q-9 -110 -57.5 -194t-124 -142t-171.5 -88t-199 -30zM422 752l229 -2q58 0 110.5 18.5t93.5 52t67.5 81t33.5 107.5q6 51 -3.5 96t-34 78.5t-64 54t-93.5 23.5l-250 1z" />
<glyph unicode="&#x3a3;" d="M825 718l-477 -525h689l-34 -192h-1000l28 161l550 577l-351 575l26 142h962l-35 -194h-664l308 -523z" />
<glyph unicode="&#x3a4;" d="M1259 1258h-433l-218 -1258h-233l218 1258h-431l35 198h1097z" />
<glyph unicode="&#x3a5;" d="M620 762l415 694h271l-610 -945l-90 -511h-228l93 541l-274 915h251z" />
<glyph unicode="&#x3a6;" d="M845 1252q97 -15 168 -64t114.5 -120t61 -158.5t8.5 -179.5q-11 -109 -53.5 -202.5t-110.5 -164t-160 -115t-201 -55.5l-39 -193h-234l39 194q-98 15 -168.5 63t-114.5 118.5t-61.5 157.5t-8.5 179q11 109 53 203.5t110.5 166.5t160.5 117t202 55l41 202h234zM317 712 q-6 -49 -4.5 -99.5t17 -94t47 -76.5t85.5 -48l125 661q-63 -14 -110.5 -46.5t-80.5 -78t-52.5 -101.5t-26.5 -117zM964 730q6 49 4.5 99.5t-16.5 95t-46 78.5t-85 49l-125 -661q62 14 109 46t80 77t52 100.5t27 115.5z" />
<glyph unicode="&#x3a7;" d="M649 915l356 541h287l-523 -732l294 -724h-263l-193 550l-365 -550h-288l535 744l-285 712h263z" />
<glyph unicode="&#x3a8;" d="M723 525q60 17 102.5 50t72 77.5t47 98t26.5 111.5l101 594h235l-101 -594q-16 -108 -55.5 -199t-102.5 -160t-150 -113.5t-198 -58.5l-63 -331h-235l64 332q-102 16 -172 65t-110.5 120.5t-54 160t-1.5 184.5l101 594h234l-100 -595q-6 -48 -7 -99t11.5 -96.5t41 -82 t80.5 -55.5l166 928h235z" />
<glyph unicode="&#x3aa;" d="M324 1456h841l-35 -199h-305l-184 -1059h306l-35 -198h-841l35 198h298l184 1059h-299zM407 1712q1 52 36.5 86t87.5 36q25 0 47.5 -8t39 -23.5t26 -37t9.5 -47.5t-10 -48t-27 -38t-39.5 -25t-47.5 -10q-25 0 -47.5 8t-39 23t-26 36.5t-9.5 47.5zM848 1711 q1 52 36.5 85.5t86.5 35.5q25 0 47.5 -8t39 -23t26 -36.5t9.5 -47.5q-1 -52 -36.5 -86t-87.5 -36q-25 0 -47.5 8t-39 23.5t-25.5 37t-9 47.5z" />
<glyph unicode="&#x3ab;" d="M620 762l415 694h271l-610 -945l-90 -511h-228l93 541l-274 915h251zM445 1712q1 52 36.5 86t87.5 36q25 0 47.5 -8t39 -23.5t26 -37t9.5 -47.5t-10 -48t-27 -38t-39.5 -25t-47.5 -10q-25 0 -47.5 8t-39 23t-26 36.5t-9.5 47.5zM886 1711q1 52 36.5 85.5t86.5 35.5 q25 0 47.5 -8t39 -23t26 -36.5t9.5 -47.5q-1 -52 -36.5 -86t-87.5 -36q-25 0 -47.5 8t-39 23.5t-25.5 37t-9 47.5z" />
<glyph unicode="&#x3ac;" d="M1074 1082l-133 -783q-2 -15 -3 -34.5t2 -36.5t13 -29.5t31 -13.5q11 -2 22.5 -0.5t22.5 3.5l6 -179q-56 -29 -119 -28q-36 0 -67.5 8t-58 24.5t-45.5 41.5t-29 61q-62 -66 -136.5 -102t-167.5 -34q-70 1 -122 24.5t-89 63t-60 91t-34.5 109t-13 117.5t4.5 117l2 22 q8 64 25 132.5t44 133.5t65 122.5t88 100.5t113 67t140 22q82 -2 150.5 -36t113.5 -104l78 120h157zM333 499q-5 -47 -6 -103t13 -105.5t48 -83.5t97 -36q66 -2 118.5 25.5t95.5 75.5l5 29l91 511q-29 49 -74 73t-102 26q-50 1 -89.5 -16.5t-69 -47.5t-51 -70t-36.5 -84 t-24 -89t-14 -84zM788 1676h246l-261 -398h-122z" />
<glyph unicode="&#x3ad;" d="M80 298q3 56 24.5 98t55.5 73.5t78.5 54t92.5 38.5q-32 16 -59.5 37.5t-48 48.5t-31.5 59.5t-9 70.5q2 65 27 115t64.5 86t91.5 60t108.5 38t115 19.5t111.5 4.5q50 -1 102 -9.5t100 -25.5t90 -43t73.5 -62t49 -82.5t17.5 -104.5l-230 1q0 42 -21.5 68.5t-54 42.5 t-71 22.5t-72.5 6.5q-38 1 -82.5 -4.5t-84.5 -21.5t-69.5 -45t-36.5 -75q-7 -44 11.5 -69.5t49.5 -38.5t69 -17t70 -5l246 -1l-31 -172l-221 1q-44 0 -92 -5t-90 -21.5t-72 -47.5t-37 -84q-6 -45 16.5 -73.5t58.5 -45t78 -22.5t75 -6q40 0 87 7t88.5 25.5t72.5 49t41 76.5 l234 1q-9 -97 -61 -163t-128 -106t-165.5 -57t-173.5 -15q-48 1 -102 7.5t-106 21.5t-98.5 39t-81 59t-54 82t-15.5 109zM803 1675h246l-261 -398h-122z" />
<glyph unicode="&#x3ae;" d="M436 1083l-23 -158q65 82 150.5 130.5t192.5 46.5q94 -2 157 -35t100 -89.5t48.5 -132t2.5 -161.5l-186 -1099h-234l187 1098q6 49 0 89.5t-25.5 70t-54.5 46.5t-87 19q-75 2 -138 -25t-116 -79l-142 -804h-233l188 1082zM800 1676h246l-261 -398h-122z" />
<glyph unicode="&#x3af;" d="M257 1082h544l-123 -739q-4 -36 -2.5 -66t13 -52t35 -34t63.5 -12q41 0 78.5 13t72.5 32l28 -171q-56 -39 -115.5 -57t-128.5 -17q-85 2 -142 30t-90.5 76.5t-44 115t-2.5 146.5l89 536h-310zM786 1656h246l-261 -398h-122z" />
<glyph unicode="&#x3b0;" d="M450 1082l-102 -622q-6 -51 -3 -102.5t21.5 -93t55.5 -68.5t99 -28q51 -1 92 17t73.5 49t57 72.5t42 87t28.5 91.5t17 87q18 128 12 257.5t-39 254.5l225 -2q20 -61 31 -125t14.5 -128.5t0 -129.5t-11.5 -128q-15 -115 -54.5 -222.5t-107 -191t-164 -132.5t-225.5 -47 q-111 2 -191.5 38.5t-131 100t-69.5 152.5t-6 196l103 617h233zM744 1700h247l-195 -295h-149zM310 1283q0 28 10 51t27 40.5t40.5 27t50.5 10.5t50.5 -8t40.5 -25t27 -38.5t10 -49.5t-10 -50t-27 -40t-40.5 -26.5t-50.5 -10.5q-26 -1 -49.5 7.5t-41 24t-27.5 38t-10 49.5z M827 1284q0 28 10 51t27 40t41 27t51 10q26 1 49 -7.5t40.5 -24.5t27.5 -38.5t10 -49.5t-10 -50.5t-27 -40.5t-40.5 -26.5t-50.5 -10.5t-50 7.5t-40.5 24.5t-27.5 38.5t-10 49.5z" />
<glyph unicode="&#x3b1;" d="M1074 1082l-133 -783q-2 -15 -3 -34.5t2 -36.5t13 -29.5t31 -13.5q11 -2 22.5 -0.5t22.5 3.5l6 -179q-56 -29 -119 -28q-36 0 -67.5 8t-58 24.5t-45.5 41.5t-29 61q-62 -66 -136.5 -102t-167.5 -34q-70 1 -122 24.5t-89 63t-60 91t-34.5 109t-13 117.5t4.5 117l2 22 q8 64 25 132.5t44 133.5t65 122.5t88 100.5t113 67t140 22q82 -2 150.5 -36t113.5 -104l78 120h157zM333 499q-5 -47 -6 -103t13 -105.5t48 -83.5t97 -36q66 -2 118.5 25.5t95.5 75.5l5 29l91 511q-29 49 -74 73t-102 26q-50 1 -89.5 -16.5t-69 -47.5t-51 -70t-36.5 -84 t-24 -89t-14 -84z" />
<glyph unicode="&#x3b2;" d="M746 1477q85 -2 158.5 -29t126 -76.5t79.5 -120.5t20 -161q-5 -55 -24.5 -101t-51 -84.5t-72 -69.5t-86.5 -55q51 -26 86.5 -63.5t57.5 -83t30 -97.5t4 -107q-8 -102 -48 -186t-105.5 -143.5t-153 -91.5t-190.5 -30q-73 2 -142 22.5t-129 62.5l-86 -455h-233l247 1448 q13 94 60 172t116 134.5t155.5 86.5t180.5 28zM642 859q106 2 173 59.5t78 163.5q4 41 -5 77.5t-30 64.5t-54 44.5t-76 17.5q-51 1 -94.5 -16.5t-77.5 -48.5t-57 -73.5t-31 -90.5l-138 -805q43 -45 102 -64t120 -20q58 -1 108 18.5t88.5 54.5t63.5 83t32 105q6 45 -0.5 88 t-26 78t-54 57t-84.5 25l-132 1l32 182z" />
<glyph unicode="&#x3b3;" d="M996 1082h250l-625 -1057l-77 -442h-233l82 470l-253 1029h232l166 -787l3 -59l35 83z" />
<glyph unicode="&#x3b4;" d="M357 1250q4 84 42 144.5t96.5 99.5t132 57t149.5 17q79 -1 153.5 -26t145.5 -57l-60 -160q-57 24 -117.5 42t-123.5 17q-30 0 -61.5 -7.5t-58.5 -22.5t-46.5 -39t-25.5 -58q-6 -32 8.5 -56.5t38 -43.5t51.5 -32.5t51 -23.5q93 -39 165.5 -93t119.5 -123.5t67.5 -155.5 t10.5 -190l-3 -21q-14 -114 -61 -213.5t-122 -172.5t-174.5 -114t-218.5 -38q-114 3 -199 45.5t-139.5 113.5t-77.5 166t-13 202l2 21q10 84 42.5 158t84.5 132.5t121.5 99t152.5 57.5l11 20q-72 39 -110.5 105.5t-33.5 149.5zM323 515q-4 -39 -3.5 -79.5t8 -78.5 t22.5 -71.5t39.5 -59t59.5 -41t83 -16.5q75 -2 132.5 28.5t97.5 81.5t64.5 115.5t33.5 130.5l3 19q6 51 -3.5 108.5t-35 107.5t-67.5 86t-101 44q-50 6 -92 -6.5t-77 -38t-62.5 -62.5t-47.5 -78.5t-33 -85.5t-18 -84z" />
<glyph unicode="&#x3b5;" d="M80 298q3 56 24.5 98t55.5 73.5t78.5 54t92.5 38.5q-32 16 -59.5 37.5t-48 48.5t-31.5 59.5t-9 70.5q2 65 27 115t64.5 86t91.5 60t108.5 38t115 19.5t111.5 4.5q50 -1 102 -9.5t100 -25.5t90 -43t73.5 -62t49 -82.5t17.5 -104.5l-230 1q0 42 -21.5 68.5t-54 42.5 t-71 22.5t-72.5 6.5q-38 1 -82.5 -4.5t-84.5 -21.5t-69.5 -45t-36.5 -75q-7 -44 11.5 -69.5t49.5 -38.5t69 -17t70 -5l246 -1l-31 -172l-221 1q-44 0 -92 -5t-90 -21.5t-72 -47.5t-37 -84q-6 -45 16.5 -73.5t58.5 -45t78 -22.5t75 -6q40 0 87 7t88.5 25.5t72.5 49t41 76.5 l234 1q-9 -97 -61 -163t-128 -106t-165.5 -57t-173.5 -15q-48 1 -102 7.5t-106 21.5t-98.5 39t-81 59t-54 82t-15.5 109z" />
<glyph unicode="&#x3b6;" d="M1187 1456l-26 -153l-459 -411q-59 -50 -119 -101t-110.5 -108t-86.5 -124t-47 -149q-5 -38 -2.5 -69t15.5 -55.5t37 -42t62 -27.5l194 -46q47 -12 91.5 -28t77.5 -42t52 -64.5t15 -95.5q-3 -50 -26 -97t-56.5 -89t-74 -77.5t-78.5 -62.5l-117 104q17 19 35.5 39.5t35 43 t28.5 46.5t16 51q3 23 -5 38.5t-23 26t-34 17t-37 11.5l-166 34q-146 32 -221 122t-59 243q10 96 55 180.5t108.5 158.5t137.5 139t142 123l301 273h-634l34 192h944z" />
<glyph unicode="&#x3b7;" d="M436 1083l-23 -158q65 82 150.5 130.5t192.5 46.5q94 -2 157 -35t100 -89.5t48.5 -132t2.5 -161.5l-186 -1099h-234l187 1098q6 49 0 89.5t-25.5 70t-54.5 46.5t-87 19q-75 2 -138 -25t-116 -79l-142 -804h-233l188 1082z" />
<glyph unicode="&#x3b8;" d="M1033 538q-16 -107 -53 -208.5t-99 -180.5t-151.5 -126t-211.5 -44q-77 2 -135.5 26t-100 64t-68.5 93.5t-40.5 115t-15 127.5t6.5 132l60 377q16 106 53 208t99 182t152 128t212 45q78 -2 136.5 -26.5t100.5 -65t68 -94.5t39.5 -116t14.5 -129t-7 -132zM816 644h-401 l-22 -152q-4 -31 -6.5 -66.5t-0.5 -71t10 -68t25 -58t45 -41.5t71 -18q68 -3 114 26.5t75 77t44.5 105.5t23.5 114zM447 832h401l19 130q4 32 6.5 67.5t0.5 70.5t-10 68t-25.5 58.5t-46 41t-70.5 17.5q-68 3 -113.5 -26.5t-74.5 -77t-44.5 -106t-23.5 -113.5z" />
<glyph unicode="&#x3b9;" d="M257 1082h544l-123 -739q-4 -36 -2.5 -66t13 -52t35 -34t63.5 -12q41 0 78.5 13t72.5 32l28 -171q-56 -39 -115.5 -57t-128.5 -17q-85 2 -142 30t-90.5 76.5t-44 115t-2.5 146.5l89 536h-310z" />
<glyph unicode="&#x3ba;" d="M530 448l-184 -141l-53 -307h-234l188 1082h234l-85 -484l114 110l393 374h303l-497 -473l319 -609h-281z" />
<glyph unicode="&#x3bb;" d="M198 0h-264l562 1054l-22 95q-7 27 -17 59t-26.5 59t-40.5 46t-58 21q-18 1 -37 -0.5t-37 -2.5l15 180q31 8 62.5 13t63.5 4q59 -1 106 -24t83 -60.5t60 -86t37 -100.5l188 -914q5 -21 11.5 -47.5t18 -50.5t29.5 -41.5t45 -20.5q11 -2 23 -0.5t23 2.5l-22 -190 q-17 -5 -33 -8t-33 -4q-62 -1 -110 22.5t-82.5 62.5t-57.5 90t-36 105l-94 488l-57 -143z" />
<glyph unicode="&#x3bc;" d="M489 1082l-102 -622q-5 -44 -7 -94t9.5 -92t41 -70.5t88.5 -30.5q154 -4 245 121l138 788h233l-187 -1082h-210l14 88q-51 -53 -111.5 -81.5t-135.5 -27.5q-52 0 -100 13t-90 44l-86 -452h-233l260 1498h233z" />
<glyph unicode="&#x3bd;" d="M531 302l4 -76l32 84l373 772h248l-580 -1082h-201l-246 1082l228 1z" />
<glyph unicode="&#x3be;" d="M1120 1245q-52 15 -104 26t-107 11q-30 0 -66 -1.5t-72.5 -8t-72 -18t-64 -30.5t-48 -46.5t-25.5 -65.5q-9 -61 17.5 -96t71.5 -53.5t98 -24t97 -6.5h155l-35 -195l-127 1q-78 0 -155.5 -13t-142 -46t-109 -90.5t-54.5 -146.5q-7 -60 11 -103.5t53 -73.5t82.5 -49.5 t98.5 -31.5l98 -25q48 -12 92.5 -27.5t77.5 -40.5t51.5 -63.5t14.5 -96.5q-3 -50 -26 -97t-56.5 -89t-74 -77.5t-78.5 -62.5l-113 104q18 19 36.5 40t34.5 43.5t27 47t15 51.5q3 23 -5 38t-22.5 25t-33 16t-36.5 12l-54 15q-92 25 -173.5 56.5t-141 81t-91 123t-22.5 183.5 q7 84 40.5 148t86 112t119.5 81.5t142 56.5q-43 18 -80.5 43t-65 58.5t-42.5 74.5t-12 91q4 73 31.5 129t71 97.5t100.5 69.5t120 44.5t128 23.5t125 7q69 0 135 -11t132 -32z" />
<glyph unicode="&#x3bf;" d="M99 544q14 112 58.5 214.5t117 179.5t171 122t219.5 42q115 -3 197.5 -49.5t133 -122.5t70 -173.5t8.5 -202.5l-2 -22q-14 -112 -59 -213.5t-117.5 -178t-171 -120.5t-218.5 -41q-114 3 -196.5 49t-133.5 121t-70.5 172t-8.5 202zM330 523q-4 -37 -4.5 -77t5.5 -79 t19 -74t36 -62t56.5 -44t80.5 -18q75 -3 130.5 30t93.5 86t60.5 119t30.5 129l2 20q6 55 3 117t-22.5 114.5t-61 88t-111.5 37.5q-75 2 -131 -31t-94 -86.5t-60.5 -119.5t-30.5 -129z" />
<glyph unicode="&#x3c0;" d="M1164 894h-139l-101 -601q-2 -21 -2.5 -42t5 -37t19 -25.5t40.5 -9.5q24 0 45.5 6.5t44.5 15.5l28 -166q-45 -29 -92.5 -42.5t-101.5 -11.5q-71 1 -115.5 26.5t-69.5 67.5t-31.5 98t-0.5 119l99 602h-291l-155 -894h-233l155 894h-127l34 188h1022z" />
<glyph unicode="&#x3c1;" d="M1060 512q-12 -99 -46 -195.5t-92.5 -172.5t-143 -122t-197.5 -44q-85 2 -158.5 32.5t-126.5 96.5l-98 -523h-233l169 991q16 108 60.5 205t114.5 169.5t165 114t212 38.5q79 -2 140 -26t105.5 -64.5t73.5 -94.5t44.5 -116.5t18 -131t-4.5 -136.5zM830 532q4 34 6 75 t-1 82.5t-12.5 81t-29.5 70.5t-52 50t-79 20q-69 1 -119.5 -31t-85.5 -82.5t-57 -112t-33 -117.5l-7 -7l6 1l-46 -266q30 -65 83.5 -95t124.5 -32q72 -2 125 28t89.5 79t57 111t28.5 124z" />
<glyph unicode="&#x3c2;" d="M660 1102q93 -2 169.5 -30t131 -80.5t82.5 -127.5t24 -170l-219 1q5 100 -48.5 156.5t-155.5 58.5q-74 2 -130 -29t-95.5 -82t-62.5 -115t-32 -128l-5 -36q-8 -66 2 -121t38 -97.5t74.5 -71.5t113.5 -41q38 -7 79.5 -15.5t81 -21t74.5 -31t61.5 -45t40.5 -63.5t12 -86 q-3 -68 -33 -123.5t-76 -99t-102.5 -76.5t-113.5 -57l-87 146q29 13 59 30.5t55.5 41t44 52t23.5 62.5q5 31 -12 49t-43.5 28t-56 14.5t-49.5 8.5q-105 18 -187 60.5t-136.5 108t-79.5 152.5t-14 195l4 37q13 112 59 212.5t119.5 175.5t172 118t217.5 40z" />
<glyph unicode="&#x3c3;" d="M1173 888l-256 -3q64 -82 92.5 -175t19.5 -197l-2 -22q-12 -107 -57.5 -201t-116.5 -164t-166 -110t-206 -37q-115 3 -196.5 50t-131 123t-68 173.5t-7.5 201.5l3 22q14 112 59 209.5t117 169.5t169 113.5t215 41.5l567 -1zM313 523q-4 -36 -5 -76t4 -79t17.5 -74.5 t34.5 -62.5t55 -44t80 -18q74 -2 127.5 31.5t89.5 86.5t56.5 118.5t28.5 126.5l2 21q6 53 3.5 111.5t-22 107.5t-59 82t-106.5 35q-72 2 -126 -28t-90.5 -79.5t-58 -112t-29.5 -124.5z" />
<glyph unicode="&#x3c4;" d="M1073 883h-333l-87 -530q-4 -36 -3 -68t12 -56t34.5 -38t65.5 -14q41 0 78.5 11.5t74.5 28.5l21 -175q-57 -34 -116.5 -49t-125.5 -13q-86 2 -142.5 32t-88.5 81.5t-41 120t-1 147.5l86 522h-345l35 199h911z" />
<glyph unicode="&#x3c5;" d="M450 1082l-102 -622q-6 -51 -3 -102.5t21.5 -93t55.5 -68.5t99 -28q51 -1 92 17t73.5 49t57 72.5t42 87t28.5 91.5t17 87q18 128 12 257.5t-39 254.5l225 -2q20 -61 31 -125t14.5 -128.5t0 -129.5t-11.5 -128q-15 -115 -54.5 -222.5t-107 -191t-164 -132.5t-225.5 -47 q-111 2 -191.5 38.5t-131 100t-69.5 152.5t-6 196l103 617h233z" />
<glyph unicode="&#x3c6;" d="M397 -9q-101 22 -167.5 77.5t-103.5 131.5t-47.5 167t0.5 185q20 165 99 303.5t216 233.5l130 -149q-81 -79 -136 -178.5t-75 -211.5q-8 -47 -9.5 -99t9 -101t36 -91t72.5 -67l109 624q7 60 32 110.5t64.5 87.5t92 56.5t114.5 18.5q67 -2 118 -26.5t88 -66t60.5 -95 t36 -112t14.5 -118.5t-4 -114q-12 -112 -51.5 -208.5t-104.5 -171t-155 -124t-204 -65.5l-87 -466h-234zM654 186q58 24 103 62t77 86t51 105t26 118q2 14 4.5 45t3 69.5t-2.5 79t-12.5 73t-26.5 53t-45 19.5q-32 -2 -46 -24.5t-20 -49.5z" />
<glyph unicode="&#x3c7;" d="M621 717l307 365h272l-462 -542l292 -540h-245l-201 378l-318 -378h-273l477 558l-283 524h245z" />
<glyph unicode="&#x3c8;" d="M807 1082l-161 -897q65 24 114 64.5t83.5 92.5t55.5 113t31 127q20 125 22.5 251t-14.5 250h222q25 -124 22.5 -250.5t-19.5 -250.5q-16 -117 -57 -218.5t-108 -180t-160.5 -129.5t-214.5 -67l-86 -465h-234l87 469q-108 24 -175 84.5t-101.5 143t-41.5 179.5t6 195 l82 489h234l-82 -492q-6 -49 -10 -107t4 -113.5t32.5 -103t75.5 -75.5l160 891h233z" />
<glyph unicode="&#x3c9;" d="M470 1081q-27 -63 -55.5 -126t-53 -127.5t-44 -130.5t-29.5 -135q-2 -12 -6.5 -45t-9 -75.5t-6.5 -90t1 -87t13.5 -66.5t31.5 -30q30 -4 53 13t39.5 45.5t27 64.5t17.5 72t11 66.5t6 48.5l51 324h241l-51 -324q-1 -13 -4.5 -40.5t-6 -61.5t-2 -70.5t7 -66.5t21 -49.5 t40.5 -20.5q29 -1 50 23.5t36 63.5t25 86.5t16 92.5t9.5 81.5t5.5 53.5q17 129 17 257.5t-29 256.5l226 -2q34 -125 34.5 -254t-16.5 -257q-7 -53 -18.5 -118t-30.5 -131.5t-47 -129t-68.5 -110.5t-95 -76t-125.5 -26q-44 1 -79 16.5t-61 41.5t-44 61t-27 76 q-21 -38 -46.5 -74t-57 -63.5t-70.5 -43.5t-87 -15q-68 1 -113.5 32t-72.5 80.5t-39 111.5t-14.5 126t2 125t10.5 107q18 140 64 269.5t115 250.5h238z" />
<glyph unicode="&#x3ca;" d="M257 1082h544l-123 -739q-4 -36 -2.5 -66t13 -52t35 -34t63.5 -12q41 0 78.5 13t72.5 32l28 -171q-56 -39 -115.5 -57t-128.5 -17q-85 2 -142 30t-90.5 76.5t-44 115t-2.5 146.5l89 536h-310zM391 1369q1 52 36.5 86t87.5 36q25 0 47.5 -8t39 -23.5t26 -37t9.5 -47.5 t-10 -48t-27 -38t-39.5 -25t-47.5 -10q-25 0 -47.5 8t-39 23t-26 36.5t-9.5 47.5zM832 1368q1 52 36.5 85.5t86.5 35.5q25 0 47.5 -8t39 -23t26 -36.5t9.5 -47.5q-1 -52 -36.5 -86t-87.5 -36q-25 0 -47.5 8t-39 23.5t-25.5 37t-9 47.5z" />
<glyph unicode="&#x3cb;" d="M450 1082l-102 -622q-6 -51 -3 -102.5t21.5 -93t55.5 -68.5t99 -28q51 -1 92 17t73.5 49t57 72.5t42 87t28.5 91.5t17 87q18 128 12 257.5t-39 254.5l225 -2q20 -61 31 -125t14.5 -128.5t0 -129.5t-11.5 -128q-15 -115 -54.5 -222.5t-107 -191t-164 -132.5t-225.5 -47 q-111 2 -191.5 38.5t-131 100t-69.5 152.5t-6 196l103 617h233zM363 1375q1 52 36.5 86t87.5 36q25 0 47.5 -8t39 -23.5t26 -37t9.5 -47.5t-10 -48t-27 -38t-39.5 -25t-47.5 -10q-25 0 -47.5 8t-39 23t-26 36.5t-9.5 47.5zM804 1374q1 52 36.5 85.5t86.5 35.5q25 0 47.5 -8 t39 -23t26 -36.5t9.5 -47.5q-1 -52 -36.5 -86t-87.5 -36q-25 0 -47.5 8t-39 23.5t-25.5 37t-9 47.5z" />
<glyph unicode="&#x3cc;" d="M99 544q14 112 58.5 214.5t117 179.5t171 122t219.5 42q115 -3 197.5 -49.5t133 -122.5t70 -173.5t8.5 -202.5l-2 -22q-14 -112 -59 -213.5t-117.5 -178t-171 -120.5t-218.5 -41q-114 3 -196.5 49t-133.5 121t-70.5 172t-8.5 202zM330 523q-4 -37 -4.5 -77t5.5 -79 t19 -74t36 -62t56.5 -44t80.5 -18q75 -3 130.5 30t93.5 86t60.5 119t30.5 129l2 20q6 55 3 117t-22.5 114.5t-61 88t-111.5 37.5q-75 2 -131 -31t-94 -86.5t-60.5 -119.5t-30.5 -129zM783 1676h246l-261 -398h-122z" />
<glyph unicode="&#x3cd;" d="M450 1082l-102 -622q-6 -51 -3 -102.5t21.5 -93t55.5 -68.5t99 -28q51 -1 92 17t73.5 49t57 72.5t42 87t28.5 91.5t17 87q18 128 12 257.5t-39 254.5l225 -2q20 -61 31 -125t14.5 -128.5t0 -129.5t-11.5 -128q-15 -115 -54.5 -222.5t-107 -191t-164 -132.5t-225.5 -47 q-111 2 -191.5 38.5t-131 100t-69.5 152.5t-6 196l103 617h233zM757 1662h246l-261 -398h-122z" />
<glyph unicode="&#x3ce;" d="M470 1081q-27 -63 -55.5 -126t-53 -127.5t-44 -130.5t-29.5 -135q-2 -12 -6.5 -45t-9 -75.5t-6.5 -90t1 -87t13.5 -66.5t31.5 -30q30 -4 53 13t39.5 45.5t27 64.5t17.5 72t11 66.5t6 48.5l51 324h241l-51 -324q-1 -13 -4.5 -40.5t-6 -61.5t-2 -70.5t7 -66.5t21 -49.5 t40.5 -20.5q29 -1 50 23.5t36 63.5t25 86.5t16 92.5t9.5 81.5t5.5 53.5q17 129 17 257.5t-29 256.5l226 -2q34 -125 34.5 -254t-16.5 -257q-7 -53 -18.5 -118t-30.5 -131.5t-47 -129t-68.5 -110.5t-95 -76t-125.5 -26q-44 1 -79 16.5t-61 41.5t-44 61t-27 76 q-21 -38 -46.5 -74t-57 -63.5t-70.5 -43.5t-87 -15q-68 1 -113.5 32t-72.5 80.5t-39 111.5t-14.5 126t2 125t10.5 107q18 140 64 269.5t115 250.5h238zM787 1663h246l-261 -398h-122z" />
<glyph unicode="&#x3d1;" d="M1176 600q-32 -11 -65.5 -18t-67.5 -13l-20 -123q-15 -102 -57.5 -188.5t-108.5 -149t-154 -97t-195 -31.5q-99 2 -176 39t-127.5 100t-72.5 147t-11 180l47 295l228 1l-48 -297q-6 -50 1 -97.5t29 -84.5t60 -60t95 -25q59 -2 102.5 20.5t73.5 60t48.5 86.5t26.5 100 l24 130q-92 22 -164 69t-120.5 113t-71 149t-15.5 177l2 20q8 80 39.5 149.5t82.5 119.5t120 78t153 26t143 -35t95 -86.5t49 -123.5t5 -146l-53 -312q29 5 58 10.5t58 12.5zM660 1089q-4 -52 4 -98.5t28.5 -85.5t55.5 -69.5t85 -49.5l54 313q3 26 3 55.5t-7.5 55 t-25.5 42.5t-53 18q-34 1 -59 -13t-42.5 -37t-27 -52t-13.5 -59z" />
<glyph unicode="&#x3d2;" d="M901 1221q24 48 54 94.5t68 82.5t85.5 58t107.5 21q32 0 61 -6.5t59 -18.5l-40 -190q-10 4 -19.5 6t-20.5 1q-38 0 -67 -19.5t-49 -50.5l-410 -678l-90 -521h-233l95 549l-170 650q-22 62 -84 65q-22 1 -44 -5l-3 192q52 22 110 21q53 -1 92.5 -23.5t68 -57.5t47.5 -79.5 t32 -90.5l93 -405l2 -74l31 74z" />
<glyph unicode="&#x3d6;" d="M1239 901l-116 1q3 -119 1.5 -236t-16.5 -235q-6 -51 -17.5 -105t-30 -105t-45 -95.5t-63.5 -77.5t-86 -51.5t-112 -16.5q-45 1 -81 17t-63.5 42.5t-45.5 62.5t-27 78q-22 -40 -48 -76.5t-58 -64.5t-72 -44.5t-89 -15.5q-59 1 -101.5 21t-71 54t-45 78t-23.5 92.5 t-6.5 99t6.5 97.5q14 127 52.5 248.5t99.5 233.5l-108 -2l33 181h1167zM880 430q13 118 13 235.5t-5 235.5l-464 2q-57 -113 -99.5 -234.5t-58.5 -247.5q-1 -11 -4 -33.5t-5 -50t-2 -56.5t4.5 -53.5t15 -41t29.5 -18.5q31 -4 54.5 12.5t40 45t28 64.5t18.5 71.5t11 66.5 t6 50l34 228h240l-34 -228q-1 -13 -4.5 -41.5t-5.5 -63t-0.5 -71t9 -66t23 -48.5t43.5 -19q23 0 40.5 15t29.5 39t19.5 53.5t12.5 58.5t7 54.5t4 40.5z" />
<glyph unicode="&#x400;" d="M982 653h-581l-79 -457h680l-34 -196h-915l252 1456h909l-35 -198h-673l-72 -411h582zM873 1548h-172l-209 273h252z" />
<glyph unicode="&#x401;" d="M982 653h-581l-79 -457h680l-34 -196h-915l252 1456h909l-35 -198h-673l-72 -411h582zM461 1707q1 52 36.5 86t87.5 36q25 0 47.5 -8t39 -23.5t26 -37t9.5 -47.5t-10 -48t-27 -38t-39.5 -25t-47.5 -10q-25 0 -47.5 8t-39 23t-26 36.5t-9.5 47.5zM902 1706q1 52 36.5 85.5 t86.5 35.5q25 0 47.5 -8t39 -23t26 -36.5t9.5 -47.5q-1 -52 -36.5 -86t-87.5 -36q-25 0 -47.5 8t-39 23.5t-25.5 37t-9 47.5z" />
<glyph unicode="&#x402;" d="M1181 1262h-482l-78 -414q39 3 79 3q100 -1 177.5 -33t128.5 -90t74.5 -139t14.5 -180q-9 -104 -46.5 -182.5t-100 -131.5t-146.5 -81.5t-184 -31.5l14 186q54 2 94 19.5t68 48t44 73t22 93.5t-1 95.5t-28.5 78t-59 54t-92.5 22.5q-20 1 -40.5 0t-40.5 -2l-118 -650h-235 l219 1262h-315l34 194h1033z" />
<glyph unicode="&#x403;" d="M1161 1262h-656l-219 -1262h-235l252 1456h892zM882 1818h282l-312 -273h-192z" />
<glyph unicode="&#x404;" d="M1077 448q-18 -107 -66 -194t-120.5 -149t-166.5 -95t-203 -30q-125 3 -210.5 55t-136 135.5t-67 189.5t-2.5 217l48 302q12 77 36 152t61 142.5t86 124t110.5 97t135.5 63t160 20.5q111 -2 192.5 -37.5t136 -99t82.5 -151t30 -192.5h-233q-1 60 -11 111.5t-35.5 90 t-68.5 61t-109 24.5q-83 2 -142 -35t-99.5 -96t-64 -131.5t-36.5 -140.5l-10 -53l512 1l-34 -194l-501 1l-10 -62q-6 -40 -8.5 -85t1.5 -89t16.5 -84.5t36.5 -72t60.5 -51t89.5 -21.5q67 -3 118.5 16.5t89 56.5t62 88.5t39.5 112.5z" />
<glyph unicode="&#x405;" d="M843 382q7 55 -13 95t-55 69t-80 49t-88 35q-75 26 -147.5 64t-129 90.5t-89 121.5t-26.5 159q6 100 55 177.5t123 130t166 79t184 24.5q97 -2 178.5 -35t140.5 -91.5t91 -139.5t29 -179h-233q-1 53 -14.5 98t-41 78t-68.5 52t-98 20q-49 1 -96 -12.5t-85.5 -40.5 t-64 -67.5t-31.5 -92.5q-6 -53 16.5 -90.5t60 -64t83 -45t86.5 -32.5q77 -27 148.5 -67t125.5 -94.5t84.5 -126t24.5 -161.5q-7 -103 -56 -179.5t-124 -127t-168 -75t-186 -22.5q-100 2 -188 34.5t-152.5 91.5t-101 143t-33.5 188h234q1 -60 17.5 -108t49 -82t79.5 -53 t108 -20q49 -1 97 11.5t87.5 38.5t66.5 65t34 92z" />
<glyph unicode="&#x406;" d="M324 1456h841l-35 -199h-305l-184 -1059h306l-35 -198h-841l35 198h298l184 1059h-299z" />
<glyph unicode="&#x407;" d="M324 1456h841l-35 -199h-305l-184 -1059h306l-35 -198h-841l35 198h298l184 1059h-299zM407 1712q1 52 36.5 86t87.5 36q25 0 47.5 -8t39 -23.5t26 -37t9.5 -47.5t-10 -48t-27 -38t-39.5 -25t-47.5 -10q-25 0 -47.5 8t-39 23t-26 36.5t-9.5 47.5zM848 1711 q1 52 36.5 85.5t86.5 35.5q25 0 47.5 -8t39 -23t26 -36.5t9.5 -47.5q-1 -52 -36.5 -86t-87.5 -36q-25 0 -47.5 8t-39 23.5t-25.5 37t-9 47.5z" />
<glyph unicode="&#x408;" d="M955 1456h237l-171 -1011q-15 -102 -63 -188t-120 -148t-164 -96.5t-195 -32.5q-101 2 -178 35t-129.5 92t-79 140t-25.5 179l236 -1q-2 -51 7.5 -95.5t32.5 -78t61 -54t94 -21.5q58 -2 106.5 20t85 59.5t60 87t32.5 102.5z" />
<glyph unicode="&#x409;" d="M892 1456l-99 -537h39q90 -3 149 -45.5t92 -107.5t43.5 -143.5t3.5 -154.5q-8 -89 -38.5 -173.5t-83 -150.5t-128 -106t-173.5 -38h-266l219 1262h-152l-102 -589q-9 -61 -21.5 -135.5t-32 -150t-49.5 -146t-74 -125t-105.5 -86.5t-144.5 -30h-35l23 192l18 -1 q44 -1 75.5 27t53.5 72.5t35.5 99.5t22 108.5t13.5 100t9 74.5l132 783h576zM770 728l-103 -537l45 -1q52 1 87.5 29.5t58.5 70t35 90t17 90.5q3 30 4.5 72t-6 82t-28.5 69.5t-63 33.5z" />
<glyph unicode="&#x40a;" d="M370 836h191l108 620h216l-105 -568h17q89 -3 150 -41.5t97 -99.5t49 -137.5t6 -154.5q-8 -90 -40 -173t-86.5 -146t-131.5 -100.5t-174 -35.5h-251l112 643h-190l-112 -643h-224l253 1456h223zM758 697l-94 -500l21 -1q51 1 87.5 26t60.5 62.5t37.5 83t18.5 89.5 q4 33 3.5 73t-11 75.5t-34 61t-66.5 29.5z" />
<glyph unicode="&#x40b;" d="M1170 1262h-457l-75 -394q8 0 15.5 0.5t15.5 0.5q96 0 172 -27.5t126.5 -80t73.5 -129t12 -174.5l-76 -458h-233l75 460q6 50 0.5 89.5t-24.5 66.5t-54 42.5t-87 17.5l-38 1l-123 -677h-235l219 1262h-312l35 194h1004z" />
<glyph unicode="&#x40c;" d="M542 630l-189 -181l-78 -449h-237l253 1456h237l-117 -670l166 180l442 490h301l-601 -649l359 -807h-267zM870 1811h282l-312 -273h-192z" />
<glyph unicode="&#x40d;" d="M955 1456h240l-253 -1456h-235l170 973l-610 -973h-241l253 1456h235l-169 -973zM834 1535h-172l-209 273h252z" />
<glyph unicode="&#x40e;" d="M569 862l40 -226l457 820h272l-712 -1200q-35 -62 -76.5 -113.5t-92.5 -88t-113 -56.5t-137 -20q-54 0 -106 9.5t-103 23.5l38 187q36 -11 73 -19.5t75 -8.5q41 -1 75 9t63 29t52.5 46t43.5 60l53 85l-295 1057h248zM1155 1860q-5 -68 -32.5 -120.5t-71.5 -89t-102.5 -55 t-124.5 -17.5q-64 1 -117 21t-91.5 56.5t-59 88t-19.5 116.5l175 -1q-2 -60 24 -99.5t92 -40.5q33 0 59 10t45 28.5t31.5 44.5t18.5 56z" />
<glyph unicode="&#x40f;" d="M278 1456h234l-219 -1263h446l219 1263h235l-252 -1456h-333l-63 -360h-236l63 360h-347z" />
<glyph unicode="&#x410;" d="M787 338h-440l-156 -338h-249l712 1456h206l197 -1456h-234zM442 543h322l-60 568z" />
<glyph unicode="&#x411;" d="M1147 1262h-656l-65 -371l192 -1q97 -2 181 -31t144 -83.5t90.5 -134t21.5 -183.5q-10 -113 -59.5 -199t-126.5 -143.5t-175 -87t-205 -28.5h-453l253 1456h892zM393 698l-88 -505l193 -2q63 0 118 18.5t97.5 53t70.5 84.5t36 114q7 54 -5 97t-40 73.5t-70 47t-96 18.5z " />
<glyph unicode="&#x412;" d="M39 0l253 1456l438 -1q88 -2 170 -25.5t143 -70t94.5 -118.5t25.5 -171q-5 -60 -27.5 -109t-58 -87.5t-82 -68.5t-98.5 -52q51 -19 88 -52t60 -75.5t32.5 -92t6.5 -101.5q-8 -109 -56.5 -190.5t-124 -135.5t-170.5 -80.5t-196 -25.5h-498zM389 660l-81 -464l242 -2 q55 1 106 17t91.5 46t68 74t35.5 101q6 49 -3.5 90t-33.5 70.5t-62 47t-87 19.5zM420 843l212 -2q51 1 100.5 14.5t89.5 40.5t67.5 67.5t35.5 95.5q7 51 -6 87.5t-41 60.5t-67.5 36t-85.5 14l-232 1z" />
<glyph unicode="&#x413;" d="M1161 1262h-656l-219 -1262h-235l252 1456h892z" />
<glyph unicode="&#x414;" d="M927 -358h-207l62 358h-599l-62 -359h-199l55 552l55 -1q57 32 99.5 77.5t74 100.5t53 116.5t37.5 125.5t27.5 127t23.5 121l137 596h670l-219 -1263h117zM584 860q-18 -86 -37 -175t-46 -175.5t-65.5 -167.5t-94.5 -152l360 3l186 1069h-212z" />
<glyph unicode="&#x415;" d="M982 653h-581l-79 -457h680l-34 -196h-915l252 1456h909l-35 -198h-673l-72 -411h582z" />
<glyph unicode="&#x416;" d="M761 617h-50l-111 -617h-217l113 618h-55l-268 -618h-274l383 762l-91 694h251l27 -634h53l114 634h217l-115 -635h46l249 635h264l-341 -718l110 -738h-252z" />
<glyph unicode="&#x417;" d="M636 836q57 0 109.5 13.5t94 41.5t69 71.5t34.5 105.5q7 55 -9.5 95t-49 67t-77.5 40.5t-95 14.5q-51 1 -99.5 -13t-88 -41t-67 -67.5t-36.5 -92.5l-233 -1q9 102 59 178.5t125 128t167 76.5t187 23q94 -2 180 -26t149.5 -74t98.5 -126t26 -181q-5 -61 -29.5 -111 t-62 -90t-85.5 -71t-100 -54q100 -46 145.5 -132t37.5 -195q-8 -114 -62.5 -197t-137 -137t-184 -79t-204.5 -23q-96 2 -180.5 30t-147 81.5t-96.5 132t-30 181.5l234 -1q-3 -54 14 -96t48.5 -72t75.5 -46.5t96 -17.5q58 -2 115.5 12.5t105 45t80 76.5t40.5 109 q8 60 -5.5 103t-44 71t-76 41.5t-101.5 15.5l-197 1l34 190z" />
<glyph unicode="&#x418;" d="M955 1456h240l-253 -1456h-235l170 973l-610 -973h-241l253 1456h235l-169 -973z" />
<glyph unicode="&#x419;" d="M955 1456h240l-253 -1456h-235l170 973l-610 -973h-241l253 1456h235l-169 -973zM1098 1847q-5 -68 -32.5 -120.5t-71.5 -89t-102.5 -55t-124.5 -17.5q-64 1 -117 21t-91.5 56.5t-59 88t-19.5 116.5l175 -1q-2 -60 24 -99.5t92 -40.5q33 0 59 10t45 28.5t31.5 44.5 t18.5 56z" />
<glyph unicode="&#x41a;" d="M533 626h-143l-109 -626h-235l252 1456h236l-112 -641h98l504 641h284l-578 -714l340 -742h-266z" />
<glyph unicode="&#x41b;" d="M1203 1456l-253 -1456h-235l219 1262h-340l-101 -581q-11 -71 -26.5 -149.5t-39 -154t-58.5 -144t-85 -120.5t-118 -82.5t-158 -30.5h-65l23 192l36 -1q54 1 93 27t66 67.5t44 94t28 107t17 105.5t11 89l133 775h809z" />
<glyph unicode="&#x41c;" d="M566 1456l65 -626l303 626h294l-253 -1456h-220l88 510l120 609l-331 -679h-123l-81 683l-96 -633l-85 -490h-221l253 1456h287z" />
<glyph unicode="&#x41d;" d="M956 0h-228l113 650h-479l-113 -650h-228l253 1456h228l-106 -609h478l106 609h229z" />
<glyph unicode="&#x41e;" d="M1110 635q-13 -79 -37.5 -159t-61.5 -153.5t-87 -137t-114 -110t-141 -72t-168 -23.5q-87 2 -153.5 31t-115 77.5t-79.5 112t-47 135.5t-18 148.5t8 149.5l29 186q12 78 36.5 158t61 153.5t85.5 137.5t112 110.5t139 72.5t167 24q87 -2 154.5 -31t117 -77t81.5 -112 t48.5 -136.5t19 -149t-7.5 -150.5zM904 823q5 40 8.5 88.5t0 98t-15 96t-35 83t-61 59.5t-93.5 25q-59 2 -105.5 -17.5t-82.5 -54t-62.5 -80.5t-45.5 -97t-31.5 -103t-20.5 -99l-29 -189q-6 -39 -9.5 -87.5t-1 -98t13.5 -96.5t33.5 -84t59.5 -60.5t93 -25.5 q59 -2 106.5 17.5t84 54t64 81t47.5 97.5t32.5 103.5t20.5 99.5z" />
<glyph unicode="&#x41f;" d="M946 0h-235l219 1262h-445l-219 -1262h-235l253 1456h915z" />
<glyph unicode="&#x420;" d="M389 558l-97 -558h-235l253 1456l460 -1q97 -3 178 -35t138 -90t86 -138.5t20 -180.5q-9 -110 -57.5 -194t-124 -142t-171.5 -88t-199 -30zM422 752l229 -2q58 0 110.5 18.5t93.5 52t67.5 81t33.5 107.5q6 51 -3.5 96t-34 78.5t-64 54t-93.5 23.5l-250 1z" />
<glyph unicode="&#x421;" d="M1062 449q-18 -105 -65.5 -192.5t-119.5 -150t-165 -96.5t-201 -31q-88 2 -156 30t-117.5 75t-82 109.5t-49 134t-19 148.5t7.5 152l30 199q13 80 38 160t63 153t88.5 135.5t114.5 108t141.5 70.5t168.5 23q108 -2 187.5 -39.5t132.5 -102t80.5 -151t30.5 -187.5h-233 q-1 55 -11 106t-34 90t-65.5 63.5t-104.5 26.5q-61 2 -108.5 -17.5t-85 -53.5t-65 -80t-47.5 -97t-32.5 -104t-20.5 -102l-31 -202q-6 -42 -9.5 -91t-1 -99t13.5 -96.5t34.5 -83.5t61.5 -60t96 -25q65 -2 116 18.5t88.5 58t62.5 88t39 109.5z" />
<glyph unicode="&#x422;" d="M1259 1258h-433l-218 -1258h-233l218 1258h-431l35 198h1097z" />
<glyph unicode="&#x423;" d="M569 862l40 -226l457 820h272l-712 -1200q-35 -62 -76.5 -113.5t-92.5 -88t-113 -56.5t-137 -20q-54 0 -106 9.5t-103 23.5l38 187q36 -11 73 -19.5t75 -8.5q41 -1 75 9t63 29t52.5 46t43.5 60l53 85l-295 1057h248z" />
<glyph unicode="&#x424;" d="M845 1252q97 -15 168 -64t114.5 -120t61 -158.5t8.5 -179.5q-11 -109 -53.5 -202.5t-110.5 -164t-160 -115t-201 -55.5l-39 -193h-234l39 194q-98 15 -168.5 63t-114.5 118.5t-61.5 157.5t-8.5 179q11 109 53 203.5t110.5 166.5t160.5 117t202 55l41 202h234zM317 712 q-6 -49 -4.5 -99.5t17 -94t47 -76.5t85.5 -48l125 661q-63 -14 -110.5 -46.5t-80.5 -78t-52.5 -101.5t-26.5 -117zM964 730q6 49 4.5 99.5t-16.5 95t-46 78.5t-85 49l-125 -661q62 14 109 46t80 77t52 100.5t27 115.5z" />
<glyph unicode="&#x425;" d="M649 915l356 541h287l-523 -732l294 -724h-263l-193 550l-365 -550h-288l535 744l-285 712h263z" />
<glyph unicode="&#x426;" d="M278 1456h234l-219 -1263h431l219 1263h236l-219 -1261h165l-114 -546h-214l61 351h-833z" />
<glyph unicode="&#x427;" d="M1211 1456l-253 -1456h-235l106 575q-118 -41 -243 -41q-105 1 -178.5 36.5t-117 97.5t-58.5 146.5t-4 182.5l76 459h234l-75 -460q-6 -47 -6.5 -93.5t12.5 -84t44 -61.5t89 -26q63 -2 125.5 8.5t123.5 27.5l125 689h235z" />
<glyph unicode="&#x428;" d="M478 1456l-219 -1263h160l219 1263h226l-219 -1263h159l219 1263h231l-252 -1456h-1008l253 1456h231z" />
<glyph unicode="&#x429;" d="M478 1456l-219 -1263h160l219 1263h226l-219 -1263h159l219 1263h231l-219 -1264h107l-113 -543h-214l61 351h-882l253 1456h231z" />
<glyph unicode="&#x42a;" d="M198 1456h498l-103 -588l93 -1q95 -3 173 -32.5t132 -83.5t80 -131.5t18 -175.5q-9 -107 -54 -190.5t-115.5 -140t-163 -85.5t-195.5 -28h-353l220 1267h-264zM560 675l-84 -483l95 -2q59 0 108 18.5t85.5 52t59.5 80.5t31 106q6 48 -2 89t-30 71t-58.5 47.5t-87.5 19.5z " />
<glyph unicode="&#x42b;" d="M377 862h62q89 -3 151.5 -38t100 -92.5t51.5 -132t7 -155.5q-8 -95 -42.5 -176.5t-92.5 -141.5t-137.5 -94t-178.5 -32h-300l253 1456h229zM991 0h-235l252 1456h236zM356 676l-96 -490l57 -1q51 1 86.5 26t58.5 63t35.5 83.5t17.5 88.5q4 31 5 69t-7.5 72.5t-30 59 t-62.5 27.5z" />
<glyph unicode="&#x42c;" d="M426 891l192 -1q97 -2 181 -31t144 -83.5t90.5 -134t21.5 -183.5q-10 -113 -59.5 -199t-126.5 -143.5t-175 -87t-205 -28.5h-453l253 1456h235zM393 698l-88 -505l193 -2q63 0 118 18.5t97.5 53t70.5 84.5t36 114q7 54 -5 97t-40 73.5t-70 47t-96 18.5z" />
<glyph unicode="&#x42d;" d="M281 475q-6 -54 0 -107.5t28 -96t62.5 -69.5t103.5 -30q84 -3 145.5 31t104 90.5t68 128t38.5 142.5l13 66l-423 -1l35 194l410 -1l12 69q9 60 7.5 127.5t-22 126t-65 98t-121.5 42.5q-70 2 -123.5 -22t-91 -66t-59.5 -99t-29 -121l-232 -1q10 108 56.5 200.5 t119.5 160.5t169 106t206 35q122 -3 208 -54t138 -133.5t70 -187t4 -214.5l-50 -322q-18 -120 -66 -227.5t-124 -188.5t-180 -127.5t-234 -43.5q-108 3 -189 42t-133.5 105.5t-75.5 155.5t-15 192h235z" />
<glyph unicode="&#x42e;" d="M1086 508q-9 -61 -23.5 -124t-38 -122.5t-56 -112t-77.5 -91t-103 -60t-132 -19.5q-69 2 -116.5 27.5t-78.5 67t-47.5 95t-22.5 111.5t-4 116.5t9 110.5l16 109h-92l-108 -616h-220l253 1456h220l-114 -651h93l23 144q8 57 22 119.5t35.5 122t52.5 112.5t73.5 92.5 t98.5 61.5t128 20q70 -2 120 -26.5t83.5 -65t52 -93t26.5 -110.5t6.5 -118t-8.5 -115zM935 968q2 21 6.5 51.5t6.5 65t0.5 69t-11.5 62.5t-30 46t-54 20q-36 2 -61 -14t-42.5 -43t-28.5 -61.5t-18 -70t-10.5 -68.5t-6.5 -57l-72 -479q-2 -17 -6.5 -47t-7.5 -64.5t-2.5 -70 t8.5 -65t25.5 -48.5t48.5 -21q38 -2 65.5 13t47 41.5t31.5 61t19.5 70t12 70t7.5 60.5z" />
<glyph unicode="&#x42f;" d="M686 0l103 590h-244l-383 -590h-261l442 662q-104 58 -153 151.5t-39 211.5q9 114 60 196t129.5 134.5t177 77t202.5 24.5l454 -1l-253 -1456h-235zM383 1018q-7 -57 6 -101t42 -74t73 -46t99 -18l218 -1l84 484l-195 2q-60 0 -116 -14t-100 -44t-73.5 -76.5 t-37.5 -111.5z" />
<glyph unicode="&#x430;" d="M726 0q-8 26 -9 52t0 53q-66 -59 -143.5 -92.5t-167.5 -31.5q-68 1 -129 23t-106 62.5t-70 98t-21 130.5q4 71 28.5 126t63.5 95.5t90.5 68.5t109.5 45.5t119.5 24.5t122.5 7l177 -1l12 73q6 44 -4.5 78.5t-34.5 58t-59 36t-78 13.5q-38 1 -72 -7.5t-62 -27t-47 -46.5 t-27 -67l-233 -1q7 86 52 149t112 104t147 60.5t157 18.5q84 -2 157.5 -26.5t126.5 -71.5t80.5 -116t18.5 -159l-79 -483q-9 -57 -12 -115t15 -114l-2 -18h-233zM464 172q80 -2 150 34t119 99l37 204l-135 1q-49 0 -102 -8t-99 -28.5t-78 -57.5t-39 -95q-5 -37 4.5 -64.5 t29.5 -46t49 -28t64 -10.5z" />
<glyph unicode="&#x431;" d="M694 1022q104 -2 178.5 -44.5t121 -111.5t64.5 -157t10 -182l-2 -22q-12 -110 -56 -206.5t-114.5 -168.5t-166 -112.5t-211.5 -38.5q-114 2 -197 48t-134.5 121t-71.5 172t-8 202l2 21v3l8 55q12 89 33 178.5t54 172.5t79 157.5t107.5 134.5t140 102.5t176.5 61.5 q37 7 76.5 14.5t74.5 22.5t61 41t35 69h191q-8 -91 -41.5 -149.5t-87 -96t-123 -58.5t-149.5 -36q-77 -15 -137.5 -44.5t-108.5 -72.5t-85 -100t-66 -127q72 69 158.5 110.5t188.5 40.5zM632 830q-67 1 -118.5 -24t-88 -68.5t-58 -99.5t-28.5 -116l-2 -21q-5 -55 -0.5 -113 t25.5 -106t62.5 -79.5t109.5 -33.5q71 -2 123.5 27.5t89 77.5t57.5 108.5t28 122.5l2 21q5 55 -2 108.5t-30 96.5t-64.5 70t-105.5 29z" />
<glyph unicode="&#x432;" d="M40 0l188 1082l412 -1q46 -1 95 -7t95 -19.5t86 -35t69.5 -53.5t44.5 -75.5t12 -100.5q-3 -48 -22 -85.5t-48.5 -66t-67.5 -50t-79 -37.5q40 -12 73.5 -34t57 -52t35.5 -67.5t10 -80.5q-4 -92 -46 -153.5t-106.5 -98t-144 -51.5t-158.5 -14h-506zM354 461l-48 -272 l249 -1q37 1 73.5 8t66.5 23.5t51.5 43.5t27.5 69q5 37 -5.5 61t-32 38.5t-50.5 21t-60 7.5zM383 634l184 -1q35 0 74 5t73.5 19t59.5 39.5t31 67.5q6 40 -8.5 64.5t-40.5 38t-59.5 18t-64.5 5.5l-204 1z" />
<glyph unicode="&#x433;" d="M1089 888h-650l-154 -888h-233l187 1082h885z" />
<glyph unicode="&#x434;" d="M66 189q49 3 84.5 32.5t61 74t42.5 100t28.5 110.5t19 105t14.5 84l77 387h728l-155 -891h145l-108 -512h-215l57 321h-675l-56 -321h-216l70 513zM550 695q-13 -65 -28 -131.5t-35 -131.5t-47.5 -126.5t-65.5 -117.5l359 3l119 684h-266z" />
<glyph unicode="&#x435;" d="M547 -20q-110 2 -197 43.5t-144.5 111.5t-84.5 163.5t-17 200.5l5 42q8 73 32 144t61.5 134t87.5 115.5t111.5 90.5t132 58.5t149.5 18.5q114 -3 193.5 -48t127 -119t64 -169.5t3.5 -198.5l-15 -101h-722q-5 -58 8.5 -110.5t44 -93t77 -65t108.5 -25.5q88 -3 165.5 33 t137.5 99l117 -122q-37 -53 -87.5 -91.5t-109.5 -63.5t-122.5 -36.5t-125.5 -10.5zM665 910q-60 2 -108 -21t-85.5 -61t-65.5 -87t-47 -99l492 -1l4 21q7 49 -2 93t-34 78t-64 54.5t-90 22.5z" />
<glyph unicode="&#x436;" d="M726 437l-54 1l-80 -438h-215l82 439h-51l-231 -439h-262l355 580l-137 502h240l68 -426l47 -1l77 427h215l-79 -428h45l220 428h258l-323 -523l147 -559h-241z" />
<glyph unicode="&#x437;" d="M606 639q37 0 77.5 6t76 21.5t61 43.5t31.5 72q6 40 -12 66t-47 41t-65 21.5t-66 6.5q-37 1 -78.5 -5.5t-78.5 -23t-64.5 -44t-37.5 -68.5l-234 -1q5 60 29.5 108t62.5 85t86.5 62.5t102.5 41.5t109.5 23t108.5 6q47 -1 97.5 -7.5t98.5 -21t90.5 -38t73.5 -57t47.5 -79 t12.5 -103.5q-3 -48 -24 -85.5t-52.5 -67t-70.5 -51.5t-78 -39q38 -16 68.5 -39t51.5 -53t31.5 -67t8.5 -79q-3 -64 -28 -114t-64.5 -87.5t-91.5 -63t-108.5 -41.5t-114.5 -22.5t-111 -5.5q-80 1 -158.5 20.5t-141 60.5t-101 105.5t-36.5 155.5l229 -1q0 -44 21 -74 t54 -48.5t73 -26.5t78 -9q38 0 82.5 7.5t84 26t68 49.5t35.5 76t-9.5 72.5t-46 42.5t-67 20.5t-72.5 6.5l-232 1l31 175z" />
<glyph unicode="&#x438;" d="M889 1082h239l-187 -1082h-234l126 723l-562 -723h-240l188 1082h233l-126 -723z" />
<glyph unicode="&#x439;" d="M889 1082h239l-187 -1082h-234l126 723l-562 -723h-240l188 1082h233l-126 -723zM1041 1528q-5 -68 -32.5 -120.5t-71.5 -89t-102.5 -55t-124.5 -17.5q-64 1 -117 21t-91.5 56.5t-59 88t-19.5 116.5l175 -1q-2 -60 24 -99.5t92 -40.5q33 0 59 10t45 28.5t31.5 44.5 t18.5 56z" />
<glyph unicode="&#x43a;" d="M512 430h-169l-75 -430h-233l188 1082h233l-76 -434h135l408 434h304l-516 -532l344 -550h-286z" />
<glyph unicode="&#x43b;" d="M1128 1082l-187 -1082h-235l155 888h-327l-45 -267q-11 -74 -26.5 -148.5t-40.5 -144t-60 -129.5t-86 -104.5t-118.5 -70t-156.5 -24.5h-57l25 201l34 -1q53 -1 91 19.5t64.5 54t43 77t27 90.5t17 93.5t11.5 86.5l76 461h795z" />
<glyph unicode="&#x43c;" d="M533 298l314 784h294l-188 -1082h-218l105 599l-272 -599h-160l-65 628l-110 -628h-217l188 1082h291z" />
<glyph unicode="&#x43d;" d="M941 0h-235l77 438h-441l-77 -438h-234l188 1082h234l-78 -452h440l79 452h234z" />
<glyph unicode="&#x43e;" d="M99 544q14 112 58.5 214.5t117 179.5t171 122t219.5 42q115 -3 197.5 -49.5t133 -122.5t70 -173.5t8.5 -202.5l-2 -22q-14 -112 -59 -213.5t-117.5 -178t-171 -120.5t-218.5 -41q-114 3 -196.5 49t-133.5 121t-70.5 172t-8.5 202zM330 523q-4 -37 -4.5 -77t5.5 -79 t19 -74t36 -62t56.5 -44t80.5 -18q75 -3 130.5 30t93.5 86t60.5 119t30.5 129l2 20q6 55 3 117t-22.5 114.5t-61 88t-111.5 37.5q-75 2 -131 -31t-94 -86.5t-60.5 -119.5t-30.5 -129z" />
<glyph unicode="&#x43f;" d="M941 0h-234l155 888h-442l-155 -888h-234l188 1082h909z" />
<glyph unicode="&#x440;" d="M1058 536q-8 -66 -26 -133.5t-47 -130t-69 -117t-91.5 -94t-115.5 -62t-141 -20.5q-78 2 -145.5 30t-118.5 88l-96 -513h-233l259 1498l213 1l-16 -110q60 63 133 97t162 32q74 -2 129.5 -26t95 -64t64 -93t37 -113t14 -123.5t-5.5 -124.5zM827 558q4 35 4.5 74t-4 77 t-16.5 73.5t-33.5 62.5t-53.5 43.5t-78 17.5q-75 2 -131 -32t-99 -92l-84 -487q24 -61 71 -92t114 -33q50 -2 90.5 13t73 42t57 63.5t42 77.5t28 85t16.5 86z" />
<glyph unicode="&#x441;" d="M534 169q43 -1 84.5 11.5t75 37t57 59t31.5 78.5l220 1q-7 -88 -52 -158.5t-113 -119.5t-151 -75t-165 -24q-116 2 -198 47.5t-132.5 120t-69.5 171t-8 201.5l4 37q13 112 58 212.5t117.5 175.5t170.5 118t217 40q89 -2 162.5 -32.5t125 -84t78.5 -127.5t22 -164l-219 1 q3 44 -9 82.5t-36 67.5t-60 46t-82 19q-75 3 -130 -28.5t-93 -82.5t-60 -115t-31 -128l-4 -36q-4 -37 -4.5 -77t4.5 -78.5t17.5 -73.5t35 -61.5t56 -43t81.5 -17.5z" />
<glyph unicode="&#x442;" d="M1191 891h-408l-155 -891h-234l155 891h-405l33 191h1048z" />
<glyph unicode="&#x443;" d="M536 421l15 -115l429 776h268l-746 -1246q-32 -55 -71 -105t-86.5 -88t-105 -60t-125.5 -22q-33 1 -65.5 6.5t-64.5 13.5l52 185q22 -2 44 -4.5t43 -1.5q33 1 60.5 16.5t50 38.5t41.5 50.5t36 51.5l99 146l-265 1019h248z" />
<glyph unicode="&#x444;" d="M76 545q13 103 50.5 193.5t98.5 162t144 120.5t187 69l83 446h236l-84 -448q91 -25 154 -78.5t100 -125.5t49.5 -157t3.5 -173l-2 -22q-13 -103 -51.5 -193t-100 -161.5t-145.5 -120t-187 -67.5l-76 -406h-236l77 409q-90 25 -152 79t-99 125t-49.5 155t-3.5 171z M872 553q6 45 6 93t-10.5 93t-34 83t-66.5 64l-132 -696q52 24 92 60t68.5 80.5t46.5 95.5t27 107zM300 523q-6 -44 -6.5 -91.5t9.5 -91.5t33 -82t65 -63l131 693q-51 -25 -90.5 -61t-67.5 -80.5t-45.5 -96t-25.5 -106.5z" />
<glyph unicode="&#x445;" d="M621 717l307 365h272l-462 -542l292 -540h-245l-201 378l-318 -378h-273l477 558l-283 524h245z" />
<glyph unicode="&#x446;" d="M219 1082h234l-154 -891h412l155 891h233l-154 -891h142l-108 -512h-214l56 321h-790z" />
<glyph unicode="&#x447;" d="M959 0h-235l71 368q-119 -29 -242 -27q-95 1 -173 28t-131.5 78.5t-78.5 128t-14 175.5l53 331h234l-54 -332q-12 -105 30.5 -158t148.5 -57q63 -2 125 5.5t124 18.5l96 523h234z" />
<glyph unicode="&#x448;" d="M415 1082l-155 -891h153l155 891h226l-155 -891h154l155 891h229l-188 -1082h-992l188 1082h230z" />
<glyph unicode="&#x449;" d="M407 1082l-155 -891h153l155 891h226l-155 -891h154l155 891h229l-155 -891h98l-108 -512h-198l56 321h-873l188 1082h230z" />
<glyph unicode="&#x44a;" d="M574 681l144 -2q73 -2 141.5 -22t119.5 -59.5t79.5 -99.5t23.5 -142q-6 -91 -46.5 -158.5t-104 -111.5t-143 -65.5t-162.5 -20.5h-406l155 893h-271l34 189h505zM541 492l-53 -304l146 -1q38 1 74 11t64.5 30t48 49.5t25.5 70.5q5 34 -3.5 60.5t-27.5 44t-46 27t-59 11.5 z" />
<glyph unicode="&#x44b;" d="M351 683h53q73 -2 134 -25t103 -65t63.5 -102t16.5 -135q-6 -85 -40 -152t-89 -112.5t-127.5 -69t-154.5 -22.5h-299l188 1082h221zM983 0h-235l188 1082h235zM332 509l-67 -323h55q76 3 123 44.5t58 117.5q4 31 1 59t-15 49.5t-34.5 35t-56.5 15.5z" />
<glyph unicode="&#x44c;" d="M394 695l277 -1q76 -2 146 -23.5t122.5 -63t81.5 -104t23 -147.5q-6 -92 -48.5 -159.5t-108 -111.5t-146.5 -65t-165 -20h-536l188 1082h233zM361 504l-55 -313l279 -1q39 1 76.5 10t68.5 28.5t52.5 50t27.5 72.5q6 37 -3.5 65t-30 46.5t-50 28.5t-63.5 12z" />
<glyph unicode="&#x44d;" d="M618 910q-45 1 -87 -11t-76.5 -36t-59.5 -58.5t-34 -79.5l-220 -1q8 89 54.5 160t115.5 120t153 74.5t168 23.5q117 -2 202 -46.5t137.5 -118t73 -171t9.5 -205.5l-4 -37q-14 -116 -60.5 -216t-121 -174t-175 -115.5t-221.5 -38.5q-90 2 -164.5 31.5t-128 82.5t-81.5 127 t-24 165l220 -1q-2 -45 10.5 -83.5t37.5 -67t61.5 -45.5t83.5 -18q69 -3 121.5 20.5t91 65t65.5 96t45 113.5l-360 -1l30 167h347q3 54 -6 104t-34 88t-66.5 61t-102.5 25z" />
<glyph unicode="&#x44e;" d="M323 629h88q13 54 31.5 111t44 110.5t59 100t76.5 81t97 53.5t121 17q69 -2 119 -26.5t84 -64.5t54 -92.5t29 -110t9 -117t-6 -113.5l-8 -71q-7 -59 -22 -122t-39.5 -122.5t-59 -112t-80 -91.5t-103.5 -60.5t-129 -19.5q-94 3 -155.5 47t-95.5 111.5t-43.5 150t0.5 161.5 l-102 -1l-78 -448h-239l188 1082h239zM626 504q-2 -19 -5.5 -51.5t-5 -69.5t0.5 -75.5t12 -69.5t29.5 -51.5t52.5 -21.5q37 -2 64.5 15.5t47 47t32 67t21 76t12.5 74t7 60.5l8 71q2 19 5.5 51.5t5 69.5t-0.5 75t-12 69.5t-29.5 51.5t-52.5 22q-37 2 -64.5 -15.5t-47 -47 t-32 -67t-21 -76t-12.5 -74t-7 -60.5z" />
<glyph unicode="&#x44f;" d="M1139 1082l-188 -1082h-233l70 399h-273l-297 -399h-256l334 442q-80 45 -118.5 120.5t-32.5 166.5q4 61 25 111.5t55 89.5t78.5 68t95.5 48t106 28t110 9zM377 725q-5 -35 4 -61.5t27.5 -45t46 -29t60.5 -11.5l303 -1l55 314l-267 1q-39 -1 -77 -11.5t-70 -31t-54 -51.5 t-28 -73z" />
<glyph unicode="&#x450;" d="M547 -20q-110 2 -197 43.5t-144.5 111.5t-84.5 163.5t-17 200.5l5 42q8 73 32 144t61.5 134t87.5 115.5t111.5 90.5t132 58.5t149.5 18.5q114 -3 193.5 -48t127 -119t64 -169.5t3.5 -198.5l-15 -101h-722q-5 -58 8.5 -110.5t44 -93t77 -65t108.5 -25.5q88 -3 165.5 33 t137.5 99l117 -122q-37 -53 -87.5 -91.5t-109.5 -63.5t-122.5 -36.5t-125.5 -10.5zM665 910q-60 2 -108 -21t-85.5 -61t-65.5 -87t-47 -99l492 -1l4 21q7 49 -2 93t-34 78t-64 54.5t-90 22.5zM793 1232h-172l-209 273h252z" />
<glyph unicode="&#x451;" d="M547 -20q-110 2 -197 43.5t-144.5 111.5t-84.5 163.5t-17 200.5l5 42q8 73 32 144t61.5 134t87.5 115.5t111.5 90.5t132 58.5t149.5 18.5q114 -3 193.5 -48t127 -119t64 -169.5t3.5 -198.5l-15 -101h-722q-5 -58 8.5 -110.5t44 -93t77 -65t108.5 -25.5q88 -3 165.5 33 t137.5 99l117 -122q-37 -53 -87.5 -91.5t-109.5 -63.5t-122.5 -36.5t-125.5 -10.5zM665 910q-60 2 -108 -21t-85.5 -61t-65.5 -87t-47 -99l492 -1l4 21q7 49 -2 93t-34 78t-64 54.5t-90 22.5zM382 1391q1 52 36.5 86t87.5 36q25 0 47.5 -8t39 -23.5t26 -37t9.5 -47.5 t-10 -48t-27 -38t-39.5 -25t-47.5 -10q-25 0 -47.5 8t-39 23t-26 36.5t-9.5 47.5zM823 1390q1 52 36.5 85.5t86.5 35.5q25 0 47.5 -8t39 -23t26 -36.5t9.5 -47.5q-1 -52 -36.5 -86t-87.5 -36q-25 0 -47.5 8t-39 23.5t-25.5 37t-9 47.5z" />
<glyph unicode="&#x452;" d="M714 1197h-242l-50 -266q31 38 67 70t77 54.5t86.5 35t96.5 11.5q94 -2 157.5 -38.5t100 -96.5t48 -138t2.5 -162l-34 -203h4l-88 -528q-11 -82 -40.5 -151.5t-78 -119.5t-116.5 -78t-155 -27q-33 0 -65.5 4.5t-64.5 12.5l32 190q23 -7 47.5 -11.5t49.5 -4.5 q38 0 65.5 16.5t46 43t29.5 59t16 65.5l11 65h-4l112 670q6 48 0 90t-25.5 74t-54 50.5t-87.5 20.5q-76 2 -137.5 -31t-112.5 -87l-138 -787h-233l207 1197h-177l30 170h177l29 169h234l-32 -169h241z" />
<glyph unicode="&#x453;" d="M1089 888h-650l-154 -888h-233l187 1082h885zM822 1486h282l-312 -273h-192z" />
<glyph unicode="&#x454;" d="M529 169q43 -1 84.5 11.5t75 37t57 59t31.5 78.5l220 1q-7 -88 -52 -158.5t-113 -119.5t-151 -75t-165 -24q-116 2 -198 47.5t-132.5 120t-69.5 171t-8 201.5l4 37q13 112 58 212.5t117.5 175.5t170.5 118t217 40q89 -2 162.5 -32.5t125 -84t78.5 -127.5t22 -164l-219 1 q3 44 -9 82.5t-36 67.5t-60 46t-82 19q-66 2 -116.5 -22t-87.5 -65t-61.5 -94t-37.5 -110h348l-30 -168h-338q-1 -50 6.5 -100t29.5 -90t60 -65.5t99 -26.5z" />
<glyph unicode="&#x455;" d="M787 299q6 42 -15.5 68t-55.5 42t-73.5 25t-67.5 16q-41 10 -85 23t-85.5 31t-79 42.5t-64.5 56.5t-42.5 72.5t-12.5 91.5q3 58 24 105.5t56 85t81 65.5t97 45.5t104 26t104 7.5q79 -1 153.5 -22.5t132 -64.5t91.5 -107.5t33 -151.5l-232 1q1 41 -14 71.5t-40.5 51 t-60 30.5t-73.5 10q-35 0 -73 -7t-70.5 -23.5t-56 -44t-29.5 -67.5q-6 -41 12.5 -66t49.5 -40t67.5 -23t65.5 -14q43 -10 89 -22.5t90 -30t83 -41.5t68 -57t44.5 -75t13.5 -96q-5 -92 -52 -156t-118 -104t-155 -58t-162 -16q-81 1 -159 24.5t-138.5 68.5t-97 112.5 t-35.5 157.5l226 -1q1 -47 18.5 -81t46.5 -56t68 -33t83 -11q35 0 75.5 6t76.5 21.5t62 42.5t32 69z" />
<glyph unicode="&#x456;" d="M284 1082h561l-153 -884h312l-35 -198h-873l35 198h325l119 685h-326zM639 1358q0 29 10 53t28 42t42.5 28t53.5 11q28 1 52.5 -8t43 -25.5t29 -40t10.5 -52.5t-11 -53.5t-29 -42.5t-43 -28t-53 -10q-28 -1 -52.5 8t-42.5 25.5t-28 40t-10 52.5z" />
<glyph unicode="&#x457;" d="M276 1082h569l-153 -884h320l-35 -198h-889l35 198h333l119 685h-334zM432 1364q1 52 36.5 86t87.5 36q25 0 47.5 -8t39 -23.5t26 -37t9.5 -47.5t-10 -48t-27 -38t-39.5 -25t-47.5 -10q-25 0 -47.5 8t-39 23t-26 36.5t-9.5 47.5zM873 1363q1 52 36.5 85.5t86.5 35.5 q25 0 47.5 -8t39 -23t26 -36.5t9.5 -47.5q-1 -52 -36.5 -86t-87.5 -36q-25 0 -47.5 8t-39 23.5t-25.5 37t-9 47.5z" />
<glyph unicode="&#x458;" d="M377 1082h539l-187 -1099q-15 -102 -55 -181t-103 -132.5t-147.5 -81t-187.5 -26.5q-99 0 -196 18l36 194q79 -15 162 -15q54 -1 97.5 14t75.5 44t53 71t29 95l153 900h-304zM709 1358q0 29 10 53t28 42t42.5 28t53.5 11q28 1 52.5 -8t42.5 -25.5t28.5 -40t10.5 -52.5 t-10.5 -53.5t-28.5 -42t-42.5 -27.5t-53.5 -11q-28 -1 -52.5 8t-42.5 25.5t-28 40t-10 52.5z" />
<glyph unicode="&#x459;" d="M867 1082l-73 -382h14q75 -2 138 -26t107.5 -67.5t67.5 -105.5t18 -140q-6 -87 -42.5 -155t-94.5 -114t-133.5 -69.5t-158.5 -22.5h-262l155 888h-137l-45 -267q-10 -65 -23.5 -136.5t-35 -141t-53 -132.5t-77 -110.5t-108 -75t-145.5 -25.5h-47l25 201h24q44 0 76.5 23 t55 59t37 82t23.5 92.5t14.5 89.5t9.5 74l76 461h594zM773 511l-64 -324h13q38 1 70 14.5t56 37t39 55t20 69.5q8 63 -20 103t-93 45h-21z" />
<glyph unicode="&#x45a;" d="M352 671h169l72 411h234l-72 -382h32q74 -2 134 -27t101 -69.5t61.5 -106t15.5 -136.5q-6 -84 -40 -151.5t-88.5 -114.5t-127 -71.5t-154.5 -23.5h-284l83 480h-168l-84 -480h-234l188 1082h234zM733 511l-64 -324h32q37 2 65.5 16.5t49 38.5t33 55t17.5 66 q3 27 0.5 52.5t-13.5 46t-30.5 33.5t-50.5 15z" />
<glyph unicode="&#x45b;" d="M761 1204h-278l-51 -273q31 38 67 70t77 54.5t86.5 35t96.5 11.5q94 -2 157.5 -38.5t100 -96.5t48 -138t2.5 -162l-112 -667h-233l112 670q6 48 0 90t-25.5 74t-54 50.5t-87.5 20.5q-76 2 -137.5 -31t-112.5 -87l-138 -787h-233l208 1204h-141l30 170h141l28 162h234 l-31 -162h277z" />
<glyph unicode="&#x45c;" d="M512 430h-169l-75 -430h-233l188 1082h233l-76 -434h135l408 434h304l-516 -532l344 -550h-286zM762 1485h282l-312 -273h-192z" />
<glyph unicode="&#x45d;" d="M889 1082h239l-187 -1082h-234l126 723l-562 -723h-240l188 1082h233l-126 -723zM776 1216h-172l-209 273h252z" />
<glyph unicode="&#x45e;" d="M536 421l15 -115l429 776h268l-746 -1246q-32 -55 -71 -105t-86.5 -88t-105 -60t-125.5 -22q-33 1 -65.5 6.5t-64.5 13.5l52 185q22 -2 44 -4.5t43 -1.5q33 1 60.5 16.5t50 38.5t41.5 50.5t36 51.5l99 146l-265 1019h248zM1082 1522q-5 -68 -32.5 -120.5t-71.5 -89 t-102.5 -55t-124.5 -17.5q-64 1 -117 21t-91.5 56.5t-59 88t-19.5 116.5l175 -1q-2 -60 24 -99.5t92 -40.5q33 0 59 10t45 28.5t31.5 44.5t18.5 56z" />
<glyph unicode="&#x45f;" d="M453 1082l-154 -891h441l155 891h233l-187 -1082h-337l-62 -357h-233l62 357h-340l188 1082h234z" />
<glyph unicode="&#x460;" d="M1285 1456l-189 -1115q-10 -73 -36.5 -139.5t-70.5 -116.5t-106 -79t-143 -27q-69 2 -122 34.5t-79 96.5q-21 -29 -45 -53.5t-52 -42t-60.5 -27t-69.5 -8.5q-77 1 -130.5 31.5t-86.5 80.5t-45 114.5t-5 133.5l189 1117h224l-188 -1118q-2 -20 -2.5 -48t4.5 -54t19.5 -45 t44.5 -20q32 -1 54 15.5t35.5 42t21 55t11.5 54.5l188 1118h228l-187 -1118q-2 -23 -2 -51.5t7 -54t24 -43t49 -18.5q30 0 49.5 17.5t31.5 43.5t18 55t9 51l188 1118h224z" />
<glyph unicode="&#x461;" d="M1204 1083l-123 -730q-10 -73 -35 -141.5t-68 -121t-104.5 -83t-143.5 -28.5q-70 2 -122.5 36.5t-76.5 100.5q-21 -30 -45 -55.5t-52.5 -44t-61 -28.5t-71.5 -9q-78 1 -130.5 34t-83.5 85.5t-41.5 118.5t-3.5 134l123 732h221l-122 -733q-1 -13 -2.5 -30.5t-1.5 -37.5 t2.5 -39.5t9.5 -35.5t19.5 -26.5t32.5 -11.5q34 -2 57 16.5t37 46.5t21.5 60t11.5 58l121 733h228l-121 -733q-2 -22 -3 -53t5.5 -59.5t23.5 -49t50 -20.5q31 0 50.5 20t31.5 48.5t17.5 60t8.5 53.5l121 733h220z" />
<glyph unicode="&#x462;" d="M685 1094h-224l-35 -203l192 -1q97 -2 181 -31t144 -83.5t90.5 -134t21.5 -183.5q-10 -113 -59.5 -199t-126.5 -143.5t-175 -87t-205 -28.5h-453l190 1094h-189l30 170h188l34 192h235l-34 -192h226zM393 698l-88 -505l193 -2q63 0 118 18.5t97.5 53t70.5 84.5t36 114 q7 54 -5 97t-40 73.5t-70 47t-96 18.5z" />
<glyph unicode="&#x463;" d="M801 1076h-284l-67 -387l219 -1q76 -2 145.5 -23t122 -62t81.5 -103t24 -146q-6 -92 -48.5 -159.5t-108 -111t-146.5 -64t-164 -19.5h-479l187 1076h-171l30 170h170l55 316h235l-56 -316h285zM417 497l-54 -306l221 -1q39 1 76.5 10t68.5 28t52.5 49t27.5 73q5 37 -5 64 t-30.5 44.5t-50 26.5t-62.5 11z" />
<glyph unicode="&#x464;" d="M353 848h111l8 47q11 61 28 129t42.5 133.5t60 124.5t82 103t108.5 69t139 23q95 -3 154 -45.5t91 -108.5t40.5 -146.5t2.5 -159.5h-209q1 21 2 48t-0.5 55t-6.5 54.5t-17 48t-32 35t-51 14.5q-40 1 -69.5 -18.5t-51 -52.5t-36 -74.5t-24 -83.5t-15.5 -81t-11 -66l-8 -48 h244l-35 -200h-235l-13 -87q-3 -21 -7.5 -56t-7.5 -76.5t-1.5 -84t12 -77.5t31 -58t56.5 -24q31 -2 54.5 9.5t41 31t29.5 45t20 53t13.5 55t10.5 50.5l208 1q-11 -83 -39 -164.5t-76 -146t-118.5 -103t-166.5 -35.5q-75 2 -127.5 30.5t-87 74t-53.5 104.5t-26 123t-5 128 t10 121l13 86h-117l-113 -648h-225l252 1456h226z" />
<glyph unicode="&#x465;" d="M883 455h-227q-2 -18 -4.5 -45.5t-2.5 -58t4 -61.5t14.5 -55.5t29 -40.5t47.5 -16q30 0 52 13.5t37 35t24.5 47.5t15.5 50l214 1q-8 -70 -37 -133.5t-75.5 -111.5t-109 -75t-137.5 -25q-95 2 -157.5 47t-97.5 113.5t-45 152t0 163.5l-115 -1l-80 -455h-227l188 1082h227 l-79 -454h101q13 56 32.5 113.5t45.5 111t60.5 100t79 80.5t99.5 53t123 17q80 -2 135 -34.5t88.5 -84t46.5 -118.5t10 -138l-216 1q1 24 -0.5 54t-9.5 56.5t-26.5 45t-51.5 20.5q-48 1 -79.5 -29t-51.5 -74t-31.5 -92t-19.5 -82h236z" />
<glyph unicode="&#x466;" d="M807 428h-119l-74 -428h-215l75 428h-100l-209 -428h-250l736 1456h223l226 -1456h-235zM464 614h317l-69 507z" />
<glyph unicode="&#x467;" d="M754 280h-103l-49 -280h-192l50 280h-94l-151 -280h-247l611 1082h221l238 -1082h-229zM458 452h261l-59 306l-6 76l-43 -95z" />
<glyph unicode="&#x468;" d="M864 453h-47l-82 -453h-156l84 454h-47l-173 -454h-216l185 452h-138l-79 -452h-208l252 1456h208l-142 -821h180l335 821h192l59 -1456h-201zM682 635h178l-3 464z" />
<glyph unicode="&#x469;" d="M845 273h-51l-52 -273h-165l53 274l-58 -1l-128 -273h-218l133 272h-117l-48 -272h-207l187 1082h209l-110 -627h175l307 627h191l124 -1082h-198zM655 455h171l-26 311z" />
<glyph unicode="&#x46a;" d="M842 787q80 -6 136 -36.5t89.5 -79t45.5 -114t4 -141.5l-68 -416h-234l69 417q4 35 3.5 66t-11 55t-33 39t-62.5 18l-46 1l-109 -596h-234l109 598l-54 1q-45 0 -77.5 -13t-55 -36.5t-35.5 -57.5t-20 -76l-69 -416h-234l68 416q24 185 129.5 276t290.5 99l-198 665h1012z M653 863l224 398h-328z" />
<glyph unicode="&#x46b;" d="M811 601q72 -12 117 -47.5t69.5 -86.5t31 -113t-0.5 -126l-36 -228h-234l35 229q3 28 6 60t-2.5 60.5t-22.5 48.5t-54 23l-34 2l-6 -7l-76 -416h-233l77 424l-41 1q-44 0 -73 -17t-47 -44t-27.5 -62.5t-15.5 -73.5l-36 -228h-233l36 228q11 83 37 149.5t69.5 114.5 t106.5 77t149 38l-179 475h979zM591 616l197 292h-292z" />
<glyph unicode="&#x46c;" d="M259 0l78 471q8 39 19.5 75t29.5 71l-124 -2l-106 -615h-200l253 1456h200l-115 -660h354l-108 660h753l-346 -667q61 -9 100.5 -39t61 -73.5t27 -96.5t-0.5 -108l-79 -472h-186l76 474q2 22 3.5 44.5t-3.5 42t-18 33.5t-40 18l-23 2l-2 -8l-111 -606h-183l112 610l-2 8 h-29q-32 -3 -54 -15.5t-36 -32.5t-22.5 -45.5t-12.5 -53.5l-82 -471h-184zM820 944l156 328h-198z" />
<glyph unicode="&#x46d;" d="M270 0l47 284q7 38 18.5 73t29.5 70l-132 -2l-73 -425h-201l188 1082h201l-84 -482h340l-113 482h737l-292 -491q55 -12 89.5 -42.5t52.5 -72.5t22.5 -91t-0.5 -99l-48 -286h-184l43 287q3 21 4 43.5t-3.5 41t-18 32t-39.5 17.5l-6 1l-15 -24l-4 1l-74 -399h-184l77 415 l-1 11h-19q-31 -2 -52.5 -14t-35.5 -31.5t-22 -44.5t-13 -52l-50 -284h-185zM776 658l142 263h-190z" />
<glyph unicode="&#x46e;" d="M547 844q55 0 106.5 12.5t92.5 39t68.5 68t35.5 101.5q6 50 -7.5 86t-41 60t-67 35.5t-84.5 13.5l-289 1l35 195l263 -1q86 -2 166.5 -25t141 -69t94 -117t26.5 -168q-5 -64 -29.5 -115.5t-62.5 -92t-88 -71t-106 -53.5q105 -44 156 -129.5t43 -198.5q-8 -108 -54 -190 t-118.5 -137t-165 -83t-194.5 -28l-53 1q-27 -1 -53.5 -7.5t-48 -19.5t-36.5 -34t-19 -51q-5 -32 3.5 -56.5t25.5 -44.5t40.5 -35.5t48.5 -27.5l-91 -150q-54 21 -99 53.5t-77 76t-48.5 96t-13.5 112.5q3 78 35.5 132.5t84.5 88.5t117.5 49t135.5 15l51 -2q55 0 105.5 16 t91 46t67 74.5t33.5 101.5q8 61 -6.5 105t-46.5 72.5t-79 42.5t-103 16l-152 1l35 196zM731 1773l165 134l206 2l-1 -21l-303 -249h-144l-234 248l1 22l192 -1z" />
<glyph unicode="&#x46f;" d="M532 622q39 0 80.5 7t77.5 24t61.5 46t32.5 75q6 39 -11 62.5t-44.5 37t-61.5 18.5t-63 6l-289 1l32 183l263 -1q45 -1 94 -7.5t95.5 -21t88 -37t71.5 -55t46 -76t13 -99.5q-3 -49 -22.5 -87t-49.5 -68t-68.5 -53t-79.5 -41q37 -14 68.5 -35t54 -49t34.5 -63t10 -77 q-4 -93 -49 -156.5t-113.5 -103t-151 -57t-161.5 -17.5l-49 1q-27 -1 -54.5 -7t-50 -19t-38 -33.5t-20.5 -51.5t2.5 -56t23.5 -45.5t38.5 -36.5t47.5 -29l-90 -141q-50 22 -92.5 55.5t-73.5 75.5t-48 92.5t-14 107.5q3 75 34.5 127t81.5 84t113.5 46t129.5 14l47 -1 q37 0 79.5 7.5t79.5 24.5t64 46.5t34 73.5q7 46 -13 73.5t-53 42t-73.5 19t-73.5 5.5l-158 1l30 169zM696 1410l165 134l206 2l-1 -21l-303 -249h-144l-234 248l1 22l192 -1z" />
<glyph unicode="&#x470;" d="M723 525q60 17 102.5 50t72 77.5t47 98t26.5 111.5l101 594h235l-101 -594q-16 -108 -55.5 -199t-102.5 -160t-150 -113.5t-198 -58.5l-63 -331h-235l64 332q-102 16 -172 65t-110.5 120.5t-54 160t-1.5 184.5l101 594h234l-100 -595q-6 -48 -7 -99t11.5 -96.5t41 -82 t80.5 -55.5l166 928h235z" />
<glyph unicode="&#x471;" d="M807 1082l-161 -897q65 24 114 64.5t83.5 92.5t55.5 113t31 127q20 125 22.5 251t-14.5 250h222q25 -124 22.5 -250.5t-19.5 -250.5q-16 -117 -57 -218.5t-108 -180t-160.5 -129.5t-214.5 -67l-86 -465h-234l87 469q-108 24 -175 84.5t-101.5 143t-41.5 179.5t6 195 l82 489h234l-82 -492q-6 -49 -10 -107t4 -113.5t32.5 -103t75.5 -75.5l160 891h233z" />
<glyph unicode="&#x472;" d="M1105 635q-13 -79 -37.5 -159t-61.5 -153.5t-87 -137t-113.5 -110t-141 -72t-168.5 -23.5q-87 2 -153.5 31t-115 77.5t-79.5 112t-47 135.5t-18 148.5t8 149.5l29 186q12 78 36.5 158t61 153.5t85.5 137.5t112 110.5t139 72.5t167 24q88 -2 155 -31t116.5 -77t81.5 -112 t48.5 -136.5t19 -149t-7.5 -150.5zM872 646h-544l-2 -13q-6 -39 -9.5 -87.5t-1 -98t13.5 -96.5t33.5 -84t59.5 -60.5t93 -25.5q59 -2 106.5 17.5t84 54t64 81t47.5 97.5t32.5 103.5t20.5 99.5zM354 816h544l1 7q5 40 8.5 88.5t0 98t-15 96t-35 83t-61 59.5t-93.5 25 q-59 2 -105.5 -17.5t-82.5 -54t-62.5 -80.5t-45.5 -97t-31.5 -103t-20.5 -99z" />
<glyph unicode="&#x473;" d="M81 544q14 112 58.5 214.5t117 179.5t171 122t219.5 42q115 -3 197.5 -49.5t133 -122.5t70 -173.5t8.5 -202.5l-2 -22q-14 -112 -59 -213.5t-117.5 -178t-171 -120.5t-218.5 -41q-114 3 -196.5 49t-133.5 121t-70.5 172t-8.5 202zM505 169q63 -2 112.5 21.5t86.5 64 t62 92.5t39 108h-498q-1 -51 7.5 -101t30.5 -90.5t61 -66.5t99 -28zM630 910q-64 2 -113.5 -22t-86 -64t-61.5 -92t-39 -107h496q1 50 -7.5 100t-30.5 90.5t-60.5 66.5t-97.5 28z" />
<glyph unicode="&#x474;" d="M552 386l5 -104l50 119l346 753q27 63 60 121t77 102.5t101.5 71.5t132.5 27l49 -2l-26 -211l-17 1q-30 0 -53.5 -11.5t-41.5 -29.5t-32 -41.5t-26 -47.5l-545 -1134h-232l-233 1456h252z" />
<glyph unicode="&#x475;" d="M487 362l2 -93l39 102l210 445q23 53 52.5 105t68.5 93.5t89.5 66.5t115.5 25q29 -1 55.5 -6.5t53.5 -18.5l-40 -189q-10 3 -20.5 5.5t-21.5 1.5q-22 -1 -40 -9.5t-33 -22t-27.5 -30.5t-21.5 -35l-418 -802h-201l-197 1082l229 1z" />
<glyph unicode="&#x476;" d="M552 386l5 -104l50 119l346 753q27 63 60 121t77 102.5t101.5 71.5t132.5 27l49 -2l-26 -211l-17 1q-30 0 -53.5 -11.5t-41.5 -29.5t-32 -41.5t-26 -47.5l-545 -1134h-232l-233 1456h252zM758 1618h-216l-245 266h270zM1045 1618h-200l-191 266h254z" />
<glyph unicode="&#x477;" d="M487 362l2 -93l39 102l210 445q23 53 52.5 105t68.5 93.5t89.5 66.5t115.5 25q29 -1 55.5 -6.5t53.5 -18.5l-40 -189q-10 3 -20.5 5.5t-21.5 1.5q-22 -1 -40 -9.5t-33 -22t-27.5 -30.5t-21.5 -35l-418 -802h-201l-197 1082l229 1zM671 1318h-216l-245 266h270zM958 1318 h-200l-191 266h254z" />
<glyph unicode="&#x478;" d="M621 478q-7 -49 -19.5 -106t-32 -113t-47 -107.5t-65.5 -90.5t-88 -61.5t-114 -20.5q-59 2 -98.5 28.5t-64.5 68t-36.5 94t-15 107.5t-0.5 107t8 93l82 502q7 46 17.5 101.5t28 111.5t43 108.5t61 92.5t82.5 63.5t109 21.5q61 -2 103.5 -27.5t70 -66t42 -92.5t20 -106.5 t3.5 -108.5t-7 -98zM912 671l-14 -161l191 572h176l-439 -1251q-15 -45 -37.5 -92.5t-54 -86t-74 -63t-97.5 -24.5q-26 0 -51 5.5t-50 10.5l16 154q17 -2 35 -5t35 -2q32 1 55 20.5t39 47.5t27.5 59t21.5 56l38 95l41 1076h169zM513 1022q2 15 5 41.5t5 58t1 64.5t-8 60.5 t-22.5 45.5t-41.5 19q-30 2 -51.5 -13.5t-36.5 -41.5t-24 -58.5t-15 -65t-9 -62t-5 -48.5l-92 -586q-2 -14 -5.5 -40.5t-6 -58.5t-2 -65.5t7 -61.5t21 -46.5t40.5 -19.5q31 -2 53 14t37.5 42t25.5 58.5t16 65.5t9.5 62.5t5.5 49.5z" />
<glyph unicode="&#x479;" d="M42 546q7 55 19 118t32 125.5t49.5 120t70.5 101t95.5 69t125.5 23.5q68 -2 114 -30t75.5 -73t44 -102t19 -117.5t1.5 -119.5t-8 -108l-3 -22q-7 -54 -19.5 -117t-33 -125t-50 -119t-71 -100.5t-96 -68.5t-124.5 -23q-67 2 -113 30t-75 72.5t-43.5 101.5t-19 117 t-2 118.5t8.5 106.5zM911 666l-15 -163l193 579h176l-439 -1251q-15 -46 -37 -93.5t-54 -86t-74.5 -62.5t-97.5 -24q-26 0 -51 5t-50 11l16 154q17 -2 35 -5t35 -2q32 1 55 20.5t39 47.5t27.5 59t20.5 56l39 95l41 1076h169zM235 526q-2 -19 -7.5 -54.5t-9.5 -78.5 t-4.5 -87.5t7 -81.5t26 -61.5t52.5 -25.5q40 -2 68 19.5t47.5 57t31 80t18.5 89t10.5 84t6.5 64.5l2 21q2 19 7.5 55t9.5 79t4.5 88t-7.5 82.5t-26.5 61.5t-52.5 26q-39 2 -67.5 -20t-47.5 -57.5t-30.5 -80.5t-18.5 -89.5t-10.5 -84.5t-6.5 -65z" />
<glyph unicode="&#x47a;" d="M788 1159h-193l74 423h193zM564 -139h-193l76 434h193zM1110 635q-13 -79 -37.5 -159t-61.5 -153.5t-87 -137t-114 -110t-141 -72t-168 -23.5q-87 2 -153.5 31t-115 77.5t-79.5 112t-47 135.5t-18 148.5t8 149.5l29 186q12 78 36.5 158t61 153.5t85.5 137.5t112 110.5 t139 72.5t167 24q87 -2 154.5 -31t117 -77t81.5 -112t48.5 -136.5t19 -149t-7.5 -150.5zM904 823q5 40 8.5 88.5t0 98t-15 96t-35 83t-61 59.5t-93.5 25q-59 2 -105.5 -17.5t-82.5 -54t-62.5 -80.5t-45.5 -97t-31.5 -103t-20.5 -99l-29 -189q-6 -39 -9.5 -87.5t-1 -98 t13.5 -96.5t33.5 -84t59.5 -60.5t93 -25.5q59 -2 106.5 17.5t84 54t64 81t47.5 97.5t32.5 103.5t20.5 99.5z" />
<glyph unicode="&#x47b;" d="M721 798h-182l74 426h182zM554 -152h-182l78 445h182zM99 544q14 112 58.5 214.5t117 179.5t171 122t219.5 42q115 -3 197.5 -49.5t133 -122.5t70 -173.5t8.5 -202.5l-2 -22q-14 -112 -59 -213.5t-117.5 -178t-171 -120.5t-218.5 -41q-114 3 -196.5 49t-133.5 121 t-70.5 172t-8.5 202zM330 523q-4 -37 -4.5 -77t5.5 -79t19 -74t36 -62t56.5 -44t80.5 -18q75 -3 130.5 30t93.5 86t60.5 119t30.5 129l2 20q6 55 3 117t-22.5 114.5t-61 88t-111.5 37.5q-75 2 -131 -31t-94 -86.5t-60.5 -119.5t-30.5 -129z" />
<glyph unicode="&#x47c;" d="M930 1457q87 -5 152.5 -37.5t107 -87t59 -127.5t8.5 -157l-114 -702q-11 -81 -42.5 -149t-82 -117.5t-119.5 -76t-154 -24.5q-66 2 -117.5 31t-80.5 89q-45 -56 -100.5 -89t-128.5 -31q-80 1 -139.5 30t-97 78.5t-53.5 116t-8 142.5l114 702q13 95 50 170t95 127.5 t136 81.5t174 31l-22 -194q-47 -2 -81 -20t-58 -47.5t-38 -68t-21 -80.5l-114 -703q-2 -25 -1.5 -55.5t8.5 -56.5t27 -44t53 -19q33 0 55 16.5t36.5 41.5t22 54.5t11.5 55.5l77 478h229l-76 -478q-2 -22 -2.5 -50.5t6 -54t22.5 -43.5t47 -19q35 -2 60 14.5t41.5 42.5 t25.5 57.5t13 59.5l115 704q4 37 3.5 73t-11.5 65t-35.5 49t-66.5 24zM1183 1737l-10 -136h-31q-54 1 -103 21t-96.5 42.5t-95 41.5t-97.5 19t-81.5 -28t-40.5 -77l-2 -18l-131 1l2 37q10 107 75.5 163.5t173.5 54.5q54 -1 102.5 -19.5t96.5 -41t97.5 -41t104.5 -19.5h36z M640 1364q29 32 54.5 67.5t35.5 79.5l18 95l146 -1l-14 -101q-11 -67 -55.5 -118.5t-101.5 -84.5z" />
<glyph unicode="&#x47d;" d="M858 1102q80 -5 137.5 -38.5t93 -87t49 -121.5t5.5 -143l-57 -383q-9 -72 -36.5 -136.5t-71.5 -113t-106 -76t-140 -24.5q-70 2 -121 38.5t-73 102.5q-21 -31 -45 -57t-52.5 -45t-61.5 -29.5t-72 -10.5q-74 1 -126.5 31.5t-84.5 79t-44.5 111.5t-6.5 129l57 383 q12 87 44.5 158.5t84.5 122.5t123 80t161 31l-19 -177q-45 -2 -75 -21.5t-49 -49.5t-29.5 -68t-16.5 -76l-54 -372q-2 -20 -4 -49t2.5 -56.5t18 -47.5t43.5 -22q33 -2 55.5 12t37 37t22 51t11.5 55l39 257h213l-39 -257q-2 -25 -1.5 -52.5t8.5 -50t26 -37.5t51 -15 q32 0 52 18.5t32 45.5t18 57t9 54l55 374q4 31 7 65.5t-3 65t-25 52t-58 26.5zM1110 1383l-10 -136h-42q-53 1 -101.5 21t-95.5 42.5t-94 41.5t-96 19q-50 0 -82 -28t-41 -76l-2 -19l-132 1l2 37q10 108 76.5 164t175.5 54q53 -1 101 -19.5t95 -40.5t96 -41t104 -20h46z M574 1006q29 32 54.5 67.5t35.5 79.5l18 95l146 -1l-14 -101q-11 -67 -55.5 -118.5t-101.5 -84.5z" />
<glyph unicode="&#x47e;" d="M467 1799h723l-19 -112h-282l-23 -127h-177l23 127h-265zM1291 1456l-189 -1115q-10 -73 -36.5 -139.5t-70.5 -116.5t-106 -79t-143 -27q-69 2 -122 34.5t-79 96.5q-21 -29 -45 -53.5t-52 -42t-60.5 -27t-69.5 -8.5q-77 1 -130.5 31.5t-86.5 80.5t-45 114.5t-5 133.5 l189 1117h224l-188 -1118q-2 -20 -2.5 -48t4.5 -54t19.5 -45t44.5 -20q32 -1 54 15.5t35.5 42t21 55t11.5 54.5l188 1118h228l-187 -1118q-2 -23 -2 -51.5t7 -54t24 -43t49 -18.5q30 0 49.5 17.5t31.5 43.5t18 55t9 51l188 1118h224z" />
<glyph unicode="&#x47f;" d="M396 1456h723l-20 -112h-281l-23 -127h-177l23 127h-265zM1204 1083l-123 -730q-10 -73 -35 -141.5t-68 -121t-104.5 -83t-143.5 -28.5q-70 2 -122.5 36.5t-76.5 100.5q-21 -30 -45 -55.5t-52.5 -44t-61 -28.5t-71.5 -9q-78 1 -130.5 34t-83.5 85.5t-41.5 118.5t-3.5 134 l123 732h221l-122 -733q-1 -13 -2.5 -30.5t-1.5 -37.5t2.5 -39.5t9.5 -35.5t19.5 -26.5t32.5 -11.5q34 -2 57 16.5t37 46.5t21.5 60t11.5 58l121 733h228l-121 -733q-2 -22 -3 -53t5.5 -59.5t23.5 -49t50 -20.5q31 0 50.5 20t31.5 48.5t17.5 60t8.5 53.5l121 733h220z" />
<glyph unicode="&#x480;" d="M651 -375h-235l69 363q-106 22 -179.5 81.5t-116 142t-56.5 180.5t-1 197l44 276q11 75 35 150t59.5 143.5t83.5 127.5t108 102t133 67t158 22q110 -2 189 -41.5t128.5 -106.5t70 -156.5t13.5 -191.5h-234q4 53 0 106.5t-23.5 96.5t-58.5 70.5t-103 29.5 q-53 2 -95.5 -16.5t-76.5 -51t-60 -75.5t-44.5 -90t-30.5 -94.5t-18 -89.5l-44 -279q-6 -43 -6.5 -89.5t6.5 -91.5t23 -86.5t42.5 -73t65.5 -51.5t92 -22l157 -2z" />
<glyph unicode="&#x481;" d="M618 -376h-233l69 365q-91 23 -150.5 77t-93.5 127t-44 157.5t-1 168.5l4 37q13 108 56.5 208t114 176t166 120.5t212.5 41.5q88 -2 158 -34t118 -86t72.5 -128t20.5 -160l-220 1q2 41 -7 79t-29.5 67.5t-53 48t-77.5 20.5q-72 3 -124.5 -30t-88.5 -85t-57 -115.5 t-29 -123.5l-5 -36q-4 -34 -5 -72t2.5 -76t14 -73t30.5 -62.5t50.5 -45t74.5 -19.5l151 -2z" />
<glyph unicode="&#x482;" d="M560 441l251 -172l-86 -118l-252 169l-233 -320h-183l294 406l-252 171l85 118l254 -170l266 369l-253 171l87 120l253 -171l237 328h181l-298 -413l256 -171l-90 -117l-250 169z" />
<glyph unicode="&#x483;" horiz-adv-x="10" d="M48 1312l-23 -126l-173 1l42 238h529l18 108l173 -1l-39 -220h-527z" />
<glyph unicode="&#x484;" horiz-adv-x="10" d="M-71 1437q63 1 122 19.5t116.5 41t116 40.5t120.5 17q51 0 91 -14t68 -41t41 -66.5t10 -91.5l-4 -39h-131l3 20q2 45 -16 70.5t-65 27.5q-59 3 -117 -15t-117 -40.5t-118.5 -42t-121.5 -20.5l-51 -1l12 135h41z" />
<glyph unicode="&#x485;" horiz-adv-x="10" d="M132 1511l19 113l185 -2l-27 -143l36 -113l-82 -68z" />
<glyph unicode="&#x486;" horiz-adv-x="10" d="M226 1300l-74 86l78 116l20 120l186 2l-23 -132z" />
<glyph unicode="&#x488;" horiz-adv-x="10" d="M22 1268q6 43 24 78t46.5 59.5t65.5 37.5t82 12q88 -1 139 -51.5t49 -137.5h-109q1 21 -2 39.5t-11.5 32.5t-24.5 22t-40 8q-47 0 -72.5 -29.5t-36.5 -70.5h-110zM546 991q6 43 24 78t46.5 59.5t66 37.5t82.5 12q43 0 78.5 -13.5t60.5 -38t38.5 -59.5t12.5 -78h-111 q1 21 -2 39.5t-11.5 32.5t-24 22t-39.5 8q-47 0 -72.5 -29.5t-36.5 -70.5h-112zM643 487q6 43 23.5 78.5t46 60t65.5 37.5t82 12q88 -1 139 -51.5t49 -137.5h-110q1 21 -1.5 39.5t-11.5 32.5t-24.5 22t-39.5 8q-47 0 -72.5 -29.5t-36.5 -70.5zM362 -32q6 43 23.5 78.5t46 60 t65.5 37.5t82 12q88 -1 139 -51.5t49 -137.5h-110q1 21 -1.5 39.5t-11.5 32.5t-24.5 22t-39.5 8q-47 0 -72.5 -29.5t-36.5 -70.5zM-247 -315q6 43 23.5 78t46 59.5t66 37.5t82.5 12q87 -1 138.5 -51.5t49.5 -137.5h-110q1 21 -2 39.5t-11.5 32.5t-24 22t-39.5 8 q-47 0 -72.5 -29.5t-36.5 -70.5h-110zM-582 991q12 88 71.5 138t148.5 49q88 -1 139 -51.5t49 -137.5h-109q1 21 -2 39.5t-11.5 32.5t-24.5 22t-40 8t-41.5 -8t-30.5 -21.5t-22 -31.5t-15 -39h-112zM-838 487q6 43 23.5 78.5t46 60t66 37.5t82.5 12q88 -1 139 -51.5 t49 -137.5h-110q1 21 -2 39.5t-11.5 32.5t-24 22t-39.5 8t-42 -8t-31 -21.5t-22 -31.5t-15 -39zM-766 -32q6 43 23.5 78.5t46 60t65.5 37.5t82 12q88 -1 139.5 -51t49.5 -138h-111q1 21 -2 39.5t-11.5 32.5t-24 22t-39.5 8t-41.5 -8t-30.5 -21.5t-22 -31.5t-15 -39z" />
<glyph unicode="&#x489;" horiz-adv-x="10" d="M142 -58l13 -19l-171 -336h-102l126 352zM170 1125l-13 16l170 337h102l-127 -351zM731 632l10 10l312 -127l-17 -91l-320 68zM-421 432l-10 -10l-312 127l16 91l320 -68zM566 1002l3 17l332 153l62 -77l-307 -191zM-264 21l-2 -18l-332 -153l-62 78l307 191zM-247 860 l-16 2l-94 336l66 61l149 -304zM547 161l18 -2l94 -335l-68 -62l-148 303z" />
<glyph unicode="&#x48a;" d="M955 1456h240l-253 -1456h-235l170 973l-610 -973h-241l253 1456h235l-169 -973zM1098 1847q-5 -68 -32.5 -120.5t-71.5 -89t-102.5 -55t-124.5 -17.5q-64 1 -117 21t-91.5 56.5t-59 88t-19.5 116.5l175 -1q-2 -60 24 -99.5t92 -40.5q33 0 59 10t45 28.5t31.5 44.5 t18.5 56zM1150 7q-20 -121 -84.5 -226.5t-159.5 -183.5l-133 74q53 76 89 156t53 171l36 209h233z" />
</font>
</defs>
</svg>
